  0
SECTION
  2
HEADER
  9
$ACADVER
  1
AC1015
  9
$ACADMAINTVER
 70
    20
  9
$DWGCODEPAGE
  3
ANSI_1252
  9
$INSBASE
 10
0.0
 20
0.0
 30
0.0
  9
$EXTMIN
 10
-120.8310752710998
 20
0.7321501462790252
 30
-0.0000000349181948
  9
$EXTMAX
 10
153.0456761681255
 20
163.8854383636323
 30
0.0000000814935746
  9
$LIMMIN
 10
0.0
 20
0.0
  9
$LIMMAX
 10
12.0
 20
9.0
  9
$ORTHOMODE
 70
     0
  9
$REGENMODE
 70
     1
  9
$FILLMODE
 70
     1
  9
$QTEXTMODE
 70
     0
  9
$MIRRTEXT
 70
     0
  9
$LTSCALE
 40
1.0
  9
$ATTMODE
 70
     1
  9
$TEXTSIZE
 40
0.2
  9
$TRACEWID
 40
0.05
  9
$TEXTSTYLE
  7
Standard
  9
$CLAYER
  8
Seat Bottom
  9
$CELTYPE
  6
ByLayer
  9
$CECOLOR
 62
   256
  9
$CELTSCALE
 40
1.0
  9
$DISPSILH
 70
     0
  9
$DIMSCALE
 40
1.0
  9
$DIMASZ
 40
0.12
  9
$DIMEXO
 40
0.05
  9
$DIMDLI
 40
0.5
  9
$DIMRND
 40
0.0
  9
$DIMDLE
 40
0.0
  9
$DIMEXE
 40
0.1
  9
$DIMTP
 40
0.1
  9
$DIMTM
 40
0.1
  9
$DIMTXT
 40
0.12
  9
$DIMCEN
 40
0.0
  9
$DIMTSZ
 40
0.0
  9
$DIMTOL
 70
     0
  9
$DIMLIM
 70
     0
  9
$DIMTIH
 70
     1
  9
$DIMTOH
 70
     1
  9
$DIMSE1
 70
     0
  9
$DIMSE2
 70
     0
  9
$DIMTAD
 70
     0
  9
$DIMZIN
 70
     7
  9
$DIMBLK
  1

  9
$DIMASO
 70
     1
  9
$DIMSHO
 70
     1
  9
$DIMPOST
  1

  9
$DIMAPOST
  1
mm
  9
$DIMALT
 70
     0
  9
$DIMALTD
 70
     2
  9
$DIMALTF
 40
25.4
  9
$DIMLFAC
 40
1.0
  9
$DIMTOFL
 70
     0
  9
$DIMTVP
 40
0.0
  9
$DIMTIX
 70
     0
  9
$DIMSOXD
 70
     0
  9
$DIMSAH
 70
     0
  9
$DIMBLK1
  1

  9
$DIMBLK2
  1

  9
$DIMSTYLE
  2
AM_ANSI
  9
$DIMCLRD
 70
   256
  9
$DIMCLRE
 70
   256
  9
$DIMCLRT
 70
     2
  9
$DIMTFAC
 40
0.71
  9
$DIMGAP
 40
0.06
  9
$DIMJUST
 70
     0
  9
$DIMSD1
 70
     0
  9
$DIMSD2
 70
     0
  9
$DIMTOLJ
 70
     1
  9
$DIMTZIN
 70
     7
  9
$DIMALTZ
 70
     0
  9
$DIMALTTZ
 70
     0
  9
$DIMUPT
 70
     0
  9
$DIMDEC
 70
     3
  9
$DIMTDEC
 70
     4
  9
$DIMALTU
 70
     2
  9
$DIMALTTD
 70
     4
  9
$DIMTXSTY
  7
Standard
  9
$DIMAUNIT
 70
     0
  9
$DIMADEC
 70
     0
  9
$DIMALTRND
 40
0.0
  9
$DIMAZIN
 70
     2
  9
$DIMDSEP
 70
    46
  9
$DIMATFIT
 70
     3
  9
$DIMFRAC
 70
     0
  9
$DIMLDRBLK
  1

  9
$DIMLUNIT
 70
     2
  9
$DIMLWD
 70
    -1
  9
$DIMLWE
 70
    -1
  9
$DIMTMOVE
 70
     0
  9
$LUNITS
 70
     2
  9
$LUPREC
 70
     4
  9
$SKETCHINC
 40
0.1
  9
$FILLETRAD
 40
1.0
  9
$AUNITS
 70
     0
  9
$AUPREC
 70
     0
  9
$MENU
  1
.
  9
$ELEVATION
 40
0.0
  9
$PELEVATION
 40
0.0
  9
$THICKNESS
 40
0.0
  9
$LIMCHECK
 70
     0
  9
$CHAMFERA
 40
0.0
  9
$CHAMFERB
 40
0.0
  9
$CHAMFERC
 40
0.0
  9
$CHAMFERD
 40
0.0
  9
$SKPOLY
 70
     0
  9
$TDCREATE
 40
2455077.755115741
  9
$TDUCREATE
 40
2455078.046782408
  9
$TDUPDATE
 40
2455087.372890266
  9
$TDUUPDATE
 40
2455087.664556933
  9
$TDINDWG
 40
2.0816041551
  9
$TDUSRTIMER
 40
2.0816010764
  9
$USRTIMER
 70
     1
  9
$ANGBASE
 50
0.0
  9
$ANGDIR
 70
     0
  9
$PDMODE
 70
     0
  9
$PDSIZE
 40
0.0
  9
$PLINEWID
 40
0.0
  9
$SPLFRAME
 70
     0
  9
$SPLINETYPE
 70
     6
  9
$SPLINESEGS
 70
     8
  9
$HANDSEED
  5
816
  9
$SURFTAB1
 70
     6
  9
$SURFTAB2
 70
     6
  9
$SURFTYPE
 70
     6
  9
$SURFU
 70
     6
  9
$SURFV
 70
     6
  9
$UCSBASE
  2

  9
$UCSNAME
  2

  9
$UCSORG
 10
0.0
 20
0.0
 30
0.0
  9
$UCSXDIR
 10
1.0
 20
0.0
 30
0.0
  9
$UCSYDIR
 10
0.0
 20
1.0
 30
0.0
  9
$UCSORTHOREF
  2

  9
$UCSORTHOVIEW
 70
     0
  9
$UCSORGTOP
 10
0.0
 20
0.0
 30
0.0
  9
$UCSORGBOTTOM
 10
0.0
 20
0.0
 30
0.0
  9
$UCSORGLEFT
 10
0.0
 20
0.0
 30
0.0
  9
$UCSORGRIGHT
 10
0.0
 20
0.0
 30
0.0
  9
$UCSORGFRONT
 10
0.0
 20
0.0
 30
0.0
  9
$UCSORGBACK
 10
0.0
 20
0.0
 30
0.0
  9
$PUCSBASE
  2

  9
$PUCSNAME
  2

  9
$PUCSORG
 10
0.0
 20
0.0
 30
0.0
  9
$PUCSXDIR
 10
1.0
 20
0.0
 30
0.0
  9
$PUCSYDIR
 10
0.0
 20
1.0
 30
0.0
  9
$PUCSORTHOREF
  2

  9
$PUCSORTHOVIEW
 70
     0
  9
$PUCSORGTOP
 10
0.0
 20
0.0
 30
0.0
  9
$PUCSORGBOTTOM
 10
0.0
 20
0.0
 30
0.0
  9
$PUCSORGLEFT
 10
0.0
 20
0.0
 30
0.0
  9
$PUCSORGRIGHT
 10
0.0
 20
0.0
 30
0.0
  9
$PUCSORGFRONT
 10
0.0
 20
0.0
 30
0.0
  9
$PUCSORGBACK
 10
0.0
 20
0.0
 30
0.0
  9
$USERI1
 70
     0
  9
$USERI2
 70
     0
  9
$USERI3
 70
     0
  9
$USERI4
 70
     0
  9
$USERI5
 70
     0
  9
$USERR1
 40
0.0
  9
$USERR2
 40
0.0
  9
$USERR3
 40
0.0
  9
$USERR4
 40
0.0
  9
$USERR5
 40
0.0
  9
$WORLDVIEW
 70
     1
  9
$SHADEDGE
 70
     3
  9
$SHADEDIF
 70
    70
  9
$TILEMODE
 70
     1
  9
$MAXACTVP
 70
    64
  9
$PINSBASE
 10
0.0
 20
0.0
 30
0.0
  9
$PLIMCHECK
 70
     0
  9
$PEXTMIN
 10
0.0
 20
0.0
 30
0.0
  9
$PEXTMAX
 10
0.0
 20
0.0
 30
0.0
  9
$PLIMMIN
 10
0.0
 20
0.0
  9
$PLIMMAX
 10
12.0
 20
9.0
  9
$UNITMODE
 70
     0
  9
$VISRETAIN
 70
     1
  9
$PLINEGEN
 70
     0
  9
$PSLTSCALE
 70
     1
  9
$TREEDEPTH
 70
  3020
  9
$CMLSTYLE
  2
Standard
  9
$CMLJUST
 70
     0
  9
$CMLSCALE
 40
1.0
  9
$PROXYGRAPHICS
 70
     1
  9
$MEASUREMENT
 70
     0
  9
$CELWEIGHT
370
    -1
  9
$ENDCAPS
280
     0
  9
$JOINSTYLE
280
     0
  9
$LWDISPLAY
290
     0
  9
$INSUNITS
 70
     1
  9
$HYPERLINKBASE
  1

  9
$STYLESHEET
  1

  9
$XEDIT
290
     1
  9
$CEPSNTYPE
380
     0
  9
$PSTYLEMODE
290
     1
  9
$FINGERPRINTGUID
  2
{C5D824CD-12E1-4546-BA26-19C0EB2BD840}
  9
$VERSIONGUID
  2
{D130DED6-E9E7-4FEA-98C5-692064EECD37}
  9
$EXTNAMES
290
     1
  9
$PSVPSCALE
 40
0.0
  9
$OLESTARTUP
290
     0
  0
ENDSEC
  0
SECTION
  2
CLASSES
  0
CLASS
  1
ACDBDICTIONARYWDFLT
  2
AcDbDictionaryWithDefault
  3
ObjectDBX Classes
 90
        0
280
     0
281
     0
  0
CLASS
  1
ACDBPLACEHOLDER
  2
AcDbPlaceHolder
  3
ObjectDBX Classes
 90
        0
280
     0
281
     0
  0
CLASS
  1
LAYOUT
  2
AcDbLayout
  3
ObjectDBX Classes
 90
        0
280
     0
281
     0
  0
CLASS
  1
DICTIONARYVAR
  2
AcDbDictionaryVar
  3
ObjectDBX Classes
 90
        0
280
     0
281
     0
  0
CLASS
  1
TABLESTYLE
  2
AcDbTableStyle
  3
ObjectDBX Classes
 90
     4095
280
     0
281
     0
  0
CLASS
  1
MATERIAL
  2
AcDbMaterial
  3
ObjectDBX Classes
 90
     1153
280
     0
281
     0
  0
CLASS
  1
VISUALSTYLE
  2
AcDbVisualStyle
  3
ObjectDBX Classes
 90
     4095
280
     0
281
     0
  0
CLASS
  1
SORTENTSTABLE
  2
AcDbSortentsTable
  3
ObjectDBX Classes
 90
        0
280
     0
281
     0
  0
CLASS
  1
SCALE
  2
AcDbScale
  3
ObjectDBX Classes
 90
     1153
280
     0
281
     0
  0
CLASS
  1
MLEADERSTYLE
  2
AcDbMLeaderStyle
  3
ACDB_MLEADERSTYLE_CLASS
 90
     4095
280
     0
281
     0
  0
CLASS
  1
ACME_DOCUMENT
  2
AcMeDbDoc
  3
AcMeServices
 90
     1024
280
     0
281
     0
  0
CLASS
  1
AMGSETTINGSOBJ
  2
AmgSettingsObj
  3
"AcadM|Product Description: AutoCAD Mechanical|Company: Autodesk, Inc."
 90
     1024
280
     0
281
     0
  0
CLASS
  1
ACMESCOPE
  2
AcMeScope
  3
AcMeServices
 90
     1024
280
     0
281
     0
  0
CLASS
  1
ACMECOMMANDHISTORY
  2
AcMeCommandHistory
  3
AcMeServices
 90
     1024
280
     0
281
     0
  0
CLASS
  1
ACIMSYSVARMAN
  2
AcImSysVarManager
  3
AcMeServices
 90
     1024
280
     0
281
     0
  0
CLASS
  1
ACIMINTSYSVAR
  2
AcImIntSysVar
  3
AcMeServices
 90
     1024
280
     0
281
     0
  0
CLASS
  1
ACMEDRAWINGMAN
  2
AcMeDrawingMan
  3
AcMeServices
 90
     1024
280
     0
281
     0
  0
CLASS
  1
ACMEVIEW
  2
AcMeView
  3
AcMeServices
 90
     1024
280
     0
281
     0
  0
CLASS
  1
ACDBENTITYCACHE
  2
AcMeEntityCache
  3
AcMeServices
 90
     1024
280
     0
281
     0
  0
CLASS
  1
GSMANAGER
  2
AcMeGSManager
  3
AcMeServices
 90
     1024
280
     0
281
     0
  0
CLASS
  1
AMDTINTERNALREACTOR
  2
AmdtInternalReactor
  3
AcMeServices
 90
     1024
280
     0
281
     0
  0
CLASS
  1
ACMESTATEMGR
  2
AcMeStateMgr
  3
AcMeServices
 90
     1024
280
     0
281
     0
  0
CLASS
  1
ACGREFMASTER
  2
AcGrefMaster
  3
AcAttribServices
 90
     1024
280
     0
281
     0
  0
CLASS
  1
AM_DRAWING_MGR
  2
AcDmDwgMgr
  3
AcMechDwgViewMgmt
 90
     1024
280
     0
281
     0
  0
CLASS
  1
AM_DWG_DOCUMENT
  2
AcDmDwgDocument
  3
AcMechDwgViewMgmt
 90
     1024
280
     0
281
     0
  0
CLASS
  1
AM_DWG_SHEET
  2
AcDmSheet
  3
AcMechDwgViewMgmt
 90
     1024
280
     0
281
     0
  0
CLASS
  1
AM_VIEWDIMPARMAP
  2
AcDmViewDimParMap
  3
AcMechDwgViewMgmt
 90
     1024
280
     0
281
     0
  0
CLASS
  1
ACIMREALSYSVAR
  2
AcImRealSysVar
  3
AcMeServices
 90
     1024
280
     0
281
     0
  0
CLASS
  1
AM_DWGMGR_NAME
  2
AcDmDwgMgrName
  3
AcMechDwgViewMgmt
 90
     1024
280
     0
281
     0
  0
CLASS
  1
ACME_DATABASE
  2
AcMeDbDatabase
  3
AcMeServices
 90
     1024
280
     0
281
     0
  0
CLASS
  1
ACRFINSADJUSTERMGR
  2
AcRfInsAdjusterMgr
  3
AcMeServices
 90
     1024
280
     0
281
     0
  0
CLASS
  1
ACGREFACADMASTER
  2
AcGrefacadMaster
  3
AcGrefServices
 90
     1024
280
     0
281
     0
  0
CLASS
  1
AMDTMENUSTATEMGR
  2
AmdtMenuStateMgr
  3
McadcomServices
 90
     1024
280
     0
281
     0
  0
CLASS
  1
AMDTMCOMMENUSTATE
  2
AmdtMcomMenuState
  3
McadcomServices
 90
     1024
280
     0
281
     0
  0
CLASS
  1
AMIMASTER
  2
AmiMaster
  3
AmiServices
 90
     1024
280
     0
281
     0
  0
CLASS
  1
MAPIAMMOUDLE
  2
MApiAmModule
  3
MApiAmServices
 90
     1024
280
     0
281
     0
  0
CLASS
  1
ACIMSTRSYSVAR
  2
AcImStrSysVar
  3
AcMeServices
 90
     1024
280
     0
281
     0
  0
CLASS
  1
AMDTADMENUSTATE
  2
AmdtAdMenuState
  3
DesignerServices
 90
     1024
280
     0
281
     0
  0
CLASS
  1
ADAPPL
  2
AcAdAppl
  3
DesignerServices
 90
     1024
280
     0
281
     0
  0
CLASS
  1
DEPMGR
  2
AcAdDepMgr
  3
DesignerServices
 90
     1024
280
     0
281
     0
  0
CLASS
  1
PARAMMGR
  2
AcAdParamMgr
  3
DesignerServices
 90
     1024
280
     0
281
     0
  0
CLASS
  1
PARAMSCOPE
  2
AcAdParamScope
  3
DesignerServices
 90
     1024
280
     0
281
     0
  0
CLASS
  1
NAMEDAPPL
  2
AcAdNamedAppl
  3
DesignerServices
 90
     1024
280
     0
281
     0
  0
CLASS
  1
AMDTDMMENUSTATE
  2
AmdtDmMenuState
  3
AcMechDwgViewMgmt
 90
     1024
280
     0
281
     0
  0
CLASS
  1
AMDTAMMENUSTATE
  2
AmdtAmMenuState
  3
DesignerAssemblies
 90
     1024
280
     0
281
     0
  0
CLASS
  1
ACAMPROJECT
  2
AcAmProject
  3
DesignerAssemblies
 90
     1024
280
     0
281
     0
  0
CLASS
  1
ACAMGRCOMPDEF
  2
AcAmGrCompDef
  3
DesignerAssemblies
 90
     1024
280
     0
281
     0
  0
CLASS
  1
ACCMCONTEXT
  2
AcCmContext
  3
DesignerAssemblies
 90
     1024
280
     0
281
     0
  0
CLASS
  1
ACAMCOMPDEF
  2
AcAmCompDef
  3
DesignerAssemblies
 90
     1024
280
     0
281
     0
  0
CLASS
  1
ACAMCOMPDEFMGR
  2
AcAmCompDefMgr
  3
DesignerAssemblies
 90
     1024
280
     0
281
     0
  0
CLASS
  1
AMCONTEXTMGR
  2
AcAmContextMgr
  3
DesignerAssemblies
 90
     1024
280
     0
281
     0
  0
CLASS
  1
ACAMCONTEXTMODELER
  2
AcAmContextModeler
  3
DesignerAssemblies
 90
     1024
280
     0
281
     0
  0
CLASS
  1
ACMDATADICTIONARY
  2
AcmDataDictionary
  3
"AcmSymBB|Product Description: AutoCAD Mechanical|Company: Autodesk, Inc."
 90
     1024
280
     0
281
     0
  0
CLASS
  1
CATALOGSTATE
  2
AcAmCatalogState
  3
DesignerAssemblies
 90
     1024
280
     0
281
     0
  0
CLASS
  1
ACAMGRCOMPDEFSET
  2
AcAmGrCompDefSet
  3
DesignerAssemblies
 90
     1024
280
     0
281
     0
  0
CLASS
  1
AMDTBROWSERDBTAB
  2
AmdtBrowserDbTab
  3
McadcomServices
 90
     1024
280
     0
281
     0
  0
CLASS
  1
CBROWSERAPPOBJECT
  2
CBrowserAppObject
  3
McadcomServices
 90
     1024
280
     0
281
     0
  0
CLASS
  1
DM_PLACEHOLDER
  2
AcDmSelsetPlaceholder
  3
AcMechDwgViewMgmt
 90
     1024
280
     0
281
     0
  0
CLASS
  1
EXACXREFPANELOBJECT
  2
ExAcXREFPanelObject
  3
EXAC_ESW
 90
     1025
280
     0
281
     0
  0
CLASS
  1
NPOCOLLECTION
  2
AcDbImpNonPersistentObjectsCollection
  3
ObjectDBX Classes
 90
     1153
280
     0
281
     0
  0
CLASS
  1
ACMSTANDARDANSI
  2
AcmStandardANSI
  3
"Amdt_StdImp|Product Description: AutoCAD Mechanical|Company: Autodesk, Inc."
 90
     1024
280
     0
281
     0
  0
CLASS
  1
ACMSURFSTANDARDANSI
  2
AcmSurfTextStdANSI
  3
"Amdt_StdImp|Product Description: AutoCAD Mechanical|Company: Autodesk, Inc."
 90
     1024
280
     0
281
     0
  0
CLASS
  1
ACMFCFSTANDARDANSI
  2
AcmFCFStdANSI
  3
"Amdt_StdImp|Product Description: AutoCAD Mechanical|Company: Autodesk, Inc."
 90
     1024
280
     0
281
     0
  0
CLASS
  1
ACMWELDSTANDARDANSI
  2
AcmWeldingStdANSI
  3
"Amdt_StdImp|Product Description: AutoCAD Mechanical|Company: Autodesk, Inc."
 90
     1024
280
     0
281
     0
  0
CLASS
  1
ACMIDSTANDARDANSI
  2
AcmIdStdANSI
  3
"Amdt_StdImp|Product Description: AutoCAD Mechanical|Company: Autodesk, Inc."
 90
     1024
280
     0
281
     0
  0
CLASS
  1
ACMDATUMSTANDARDANSI
  2
AcmDatumStdANSI
  3
"Amdt_StdImp|Product Description: AutoCAD Mechanical|Company: Autodesk, Inc."
 90
     1024
280
     0
281
     0
  0
CLASS
  1
ACMBOMSTANDARDANSI
  2
AcmBOMStdANSI
  3
"Amdt_StdImp|Product Description: AutoCAD Mechanical|Company: Autodesk, Inc."
 90
     1024
280
     0
281
     0
  0
CLASS
  1
ACMDETAILSTANDARDANSI
  2
AmdtDetailSymStdANSI
  3
"Amdt_StdImp|Product Description: AutoCAD Mechanical|Company: Autodesk, Inc."
 90
     1024
280
     0
281
     0
  0
CLASS
  1
ACMSECTIONSTANDARDANSI
  2
AmdtSectionSymStdANSI
  3
"Amdt_StdImp|Product Description: AutoCAD Mechanical|Company: Autodesk, Inc."
 90
     1024
280
     0
281
     0
  0
CLASS
  1
ACMCENTERLINESTANDARDANSI
  2
AmdtCenterLineStdANSI
  3
"Amdt_StdImp|Product Description: AutoCAD Mechanical|Company: Autodesk, Inc."
 90
     1024
280
     0
281
     0
  0
CLASS
  1
ACMTHREADLINESTANDARDANSI
  2
AmdtThreadLineStdANSI
  3
"Amdt_StdImp|Product Description: AutoCAD Mechanical|Company: Autodesk, Inc."
 90
     1024
280
     0
281
     0
  0
CLASS
  1
ACMNOTESTANDARDANSI
  2
AmdtNoteStdANSI
  3
"Amdt_StdImp|Product Description: AutoCAD Mechanical|Company: Autodesk, Inc."
 90
     1024
280
     0
281
     0
  0
CLASS
  1
ACMTAPERSTANDARDANSI
  2
AcmTaperStdANSI
  3
"Amdt_StdImp|Product Description: AutoCAD Mechanical|Company: Autodesk, Inc."
 90
     1024
280
     0
281
     0
  0
CLASS
  1
ACMANOOTATIONVIEWSTANDARDANSI
  2
AmdtAnViewStdANSI
  3
"Amdt_StdImp|Product Description: AutoCAD Mechanical|Company: Autodesk, Inc."
 90
     1024
280
     0
281
     0
  0
CLASS
  1
ACAMGLAYSTD
  2
AcAmgLayStd
  3
"AmgLay|Product Description: AutoCAD Mechanical|Company: Autodesk, Inc."
 90
     1024
280
     0
281
     0
  0
CLASS
  1
ACAMGDIMSTD
  2
AcAmgDimStd
  3
"AmgDim|Product Description: AutoCAD Mechanical|Company: Autodesk, Inc."
 90
     1024
280
     0
281
     0
  0
CLASS
  1
AMGOBJPROPCFG
  2
AmgObjPropCfg
  3
"AmgLay|Product Description: AutoCAD Mechanical|Company: Autodesk, Inc."
 90
     1025
280
     0
281
     0
  0
CLASS
  1
ACAMGHOLECHARTSTDANSI
  2
AcAmgHoleChartStdANSI
  3
AmgDim|Product Description: AutoCAD Mechanical|Company: Autodesk, Inc.
 90
     1024
280
     0
281
     0
  0
CLASS
  1
ACAMGTITLESTD
  2
AcAmgTitleStd
  3
"AmgTitle|Product Description: AutoCAD Mechanical|Company: Autodesk, Inc."
 90
     4095
280
     0
281
     0
  0
CLASS
  1
AMDTNOTETEMPLATEDB
  2
AmdtNoteTemplateDB
  3
AcmSymBB|Product Description: AutoCAD Mechanical|Company: Autodesk, Inc.
 90
     1024
280
     0
281
     0
  0
CLASS
  1
ACAMGFILTERDAT
  2
AcAmgFilterDat
  3
"AcadM|Product Description: AutoCAD Mechanical|Company: Autodesk, Inc."
 90
     1024
280
     0
281
     0
  0
CLASS
  1
CAMSSTRUCTBTNSTATE
  2
StructBtnState
  3
DesignerAssemblies
 90
     1024
280
     0
281
     0
  0
CLASS
  1
CELLSTYLEMAP
  2
AcDbCellStyleMap
  3
ObjectDBX Classes
 90
     1152
280
     0
281
     0
  0
CLASS
  1
DIMASSOC
  2
AcDbDimAssoc
  3
"AcDbDimAssoc|Product Desc:     AcDim ARX App For Dimension|Company:          Autodesk, Inc.|WEB Address:      www.autodesk.com"
 90
        0
280
     0
281
     0
  0
ENDSEC
  0
SECTION
  2
TABLES
  0
TABLE
  2
VPORT
  5
8
330
0
100
AcDbSymbolTable
 70
     1
  0
VPORT
  5
94
330
8
100
AcDbSymbolTableRecord
100
AcDbViewportTableRecord
  2
*Active
 70
     0
 10
0.0
 20
0.0
 11
1.0
 21
1.0
 12
16.10730044851285
 22
82.30879425495567
 13
0.0
 23
0.0
 14
0.5
 24
0.5
 15
0.5
 25
0.5
 16
0.0
 26
0.0
 36
1.0
 17
0.0
 27
0.0
 37
0.0
 40
164.4345967635628
 41
2.056356487549148
 42
50.0
 43
0.0
 44
0.0
 50
0.0
 51
0.0
 71
     0
 72
  1000
 73
     1
 74
     3
 75
     0
 76
     0
 77
     0
 78
     0
281
     0
 65
     1
110
0.0
120
0.0
130
0.0
111
1.0
121
0.0
131
0.0
112
0.0
122
1.0
132
0.0
 79
     0
146
0.0
  0
ENDTAB
  0
TABLE
  2
LTYPE
  5
5
330
0
100
AcDbSymbolTable
 70
    17
  0
LTYPE
  5
14
330
5
100
AcDbSymbolTableRecord
100
AcDbLinetypeTableRecord
  2
ByBlock
 70
     0
  3

 72
    65
 73
     0
 40
0.0
  0
LTYPE
  5
15
330
5
100
AcDbSymbolTableRecord
100
AcDbLinetypeTableRecord
  2
ByLayer
 70
     0
  3

 72
    65
 73
     0
 40
0.0
  0
LTYPE
  5
16
330
5
100
AcDbSymbolTableRecord
100
AcDbLinetypeTableRecord
  2
Continuous
 70
     0
  3
Solid line
 72
    65
 73
     0
 40
0.0
  0
LTYPE
  5
172
330
5
100
AcDbSymbolTableRecord
100
AcDbLinetypeTableRecord
  2
HIDDEN
 70
     0
  3
Hidden __ __ __ __ __ __ __ __ __ __ __ __ __ _
 72
    65
 73
     2
 40
0.375
 49
0.25
 74
     0
 49
-0.125
 74
     0
  0
LTYPE
  5
173
330
5
100
AcDbSymbolTableRecord
100
AcDbLinetypeTableRecord
  2
PHANTOM2
 70
     0
  3
Phantom (.5x) ___ _ _ ___ _ _ ___ _ _ ___ _ _
 72
    65
 73
     6
 40
1.25
 49
0.625
 74
     0
 49
-0.125
 74
     0
 49
0.125
 74
     0
 49
-0.125
 74
     0
 49
0.125
 74
     0
 49
-0.125
 74
     0
  0
LTYPE
  5
174
330
5
100
AcDbSymbolTableRecord
100
AcDbLinetypeTableRecord
  2
CENTER
 70
     0
  3
Center ____ _ ____ _ ____ _ ____ _ ____ _ ____
 72
    65
 73
     4
 40
2.0
 49
1.25
 74
     0
 49
-0.25
 74
     0
 49
0.25
 74
     0
 49
-0.25
 74
     0
  0
LTYPE
  5
1BB
330
5
100
AcDbSymbolTableRecord
100
AcDbLinetypeTableRecord
  2
AM_ISO02W050
 70
     0
  3
__ __ __ __ __ __ __ __ __ __ __ __ __ __ __
 72
    65
 73
     2
 40
7.5
 49
6.0
 74
     0
 49
-1.5
 74
     0
  0
LTYPE
  5
1BC
330
5
100
AcDbSymbolTableRecord
100
AcDbLinetypeTableRecord
  2
AM_ISO08W050
 70
     0
  3
____ . ____ . ____ . ____ . ____ . ____ . ____
 72
    65
 73
     4
 40
18.0
 49
12.0
 74
     0
 49
-1.5
 74
     0
 49
3.0
 74
     0
 49
-1.5
 74
     0
  0
LTYPE
  5
1BD
330
5
100
AcDbSymbolTableRecord
100
AcDbLinetypeTableRecord
  2
AM_ISO09W050
 70
     0
  3
_____ . . _____ . . _____ . . ____ .. ____
 72
    65
 73
     6
 40
22.5
 49
12.0
 74
     0
 49
-1.5
 74
     0
 49
3.0
 74
     0
 49
-1.5
 74
     0
 49
3.0
 74
     0
 49
-1.5
 74
     0
  0
LTYPE
  5
1BE
330
5
100
AcDbSymbolTableRecord
100
AcDbLinetypeTableRecord
  2
Amconstr
 70
     0
  3
_______________________
 72
    65
 73
     2
 40
9999.0
 49
9999.0
 74
     0
 49
0.0
 74
     0
  0
LTYPE
  5
1BF
330
5
100
AcDbSymbolTableRecord
100
AcDbLinetypeTableRecord
  2
AM_ISO08W050x2
 70
     0
  3
__ . __ . __ . __ . __ . __
 72
    65
 73
     4
 40
9.0
 49
6.0
 74
     0
 49
-0.75
 74
     0
 49
1.5
 74
     0
 49
-0.75
 74
     0
  0
LTYPE
  5
1C0
330
5
100
AcDbSymbolTableRecord
100
AcDbLinetypeTableRecord
  2
AM_ISO02W050x2
 70
     0
  3
 _ _ _ _ _ _ _ _ _ _ _ _
 72
    65
 73
     2
 40
3.75
 49
3.0
 74
     0
 49
-0.75
 74
     0
  0
LTYPE
  5
1C3
330
5
100
AcDbSymbolTableRecord
100
AcDbLinetypeTableRecord
  2
Amzigzag
 70
     0
  3
/\/-/\/-/\/-/\/-/\/-/\/
 72
    65
 73
     2
 40
11.0001
 49
0.0001
 74
     4
 75
   136
340
1C2
 46
0.04
 50
0.0
 44
0.0
 45
0.0
 49
-11.0
 74
     0
  0
LTYPE
  5
1C4
330
5
100
AcDbSymbolTableRecord
100
AcDbLinetypeTableRecord
  2
CENTER2
 70
     0
  3
Center (.5x) ___ _ ___ _ ___ _ ___ _ ___ _ ___
 72
    65
 73
     4
 40
1.125
 49
0.75
 74
     0
 49
-0.125
 74
     0
 49
0.125
 74
     0
 49
-0.125
 74
     0
  0
LTYPE
  5
1C5
330
5
100
AcDbSymbolTableRecord
100
AcDbLinetypeTableRecord
  2
HIDDEN2
 70
     0
  3
Hidden (.5x) _ _ _ _ _ _ _ _ _ _ _ _ _ _ _ _ _
 72
    65
 73
     2
 40
0.1875
 49
0.125
 74
     0
 49
-0.0625
 74
     0
  0
LTYPE
  5
1C6
330
5
100
AcDbSymbolTableRecord
100
AcDbLinetypeTableRecord
  2
Amzigzag2
 70
     0
  3
/\/-/\/-/\/-/\/-/\/-/\/
 72
    65
 73
     2
 40
0.4401
 49
0.0001
 74
     4
 75
   136
340
1C2
 46
0.0016
 50
0.0
 44
0.0
 45
0.0
 49
-0.4400000000000001
 74
     0
  0
LTYPE
  5
1D4
330
5
100
AcDbSymbolTableRecord
100
AcDbLinetypeTableRecord
  2
ACANSTGB
 70
     0
  3
__ . . __ . .
 72
    65
 73
     6
 40
0.35433070866
 49
0.15748031496
 74
     0
 49
-0.03937007874
 74
     0
 49
0.03937007874
 74
     0
 49
-0.03937007874
 74
     0
 49
0.03937007874
 74
     0
 49
-0.03937007874
 74
     0
  0
LTYPE
  5
1D5
330
5
100
AcDbSymbolTableRecord
100
AcDbLinetypeTableRecord
  2
ACANSTGL
 70
     0
  3
_ _ _ _ _
 72
    65
 73
     2
 40
0.11811023622
 49
0.07874015748
 74
     0
 49
-0.03937007874
 74
     0
  0
ENDTAB
  0
TABLE
  2
LAYER
  5
2
102
{ACAD_XDICTIONARY
360
C3
102
}
330
0
100
AcDbSymbolTable
 70
     8
  0
LAYER
  5
10
102
{ACAD_XDICTIONARY
360
1F1
102
}
330
2
100
AcDbSymbolTableRecord
100
AcDbLayerTableRecord
  2
0
 70
     0
 62
     7
  6
Continuous
370
    -3
390
F
  0
LAYER
  5
C1
102
{ACAD_XDICTIONARY
360
1F3
102
}
330
2
100
AcDbSymbolTableRecord
100
AcDbLayerTableRecord
  2
Seat Sides
 70
     0
 62
    50
  6
Continuous
370
    -3
390
F
1001
AcAecLayerStandard
1000

1000

  0
LAYER
  5
E6
102
{ACAD_XDICTIONARY
360
1F5
102
}
330
2
100
AcDbSymbolTableRecord
100
AcDbLayerTableRecord
  2
Seat Back
 70
     0
 62
    90
  6
Continuous
370
    -3
390
F
1001
AcAecLayerStandard
1000

1000

  0
LAYER
  5
1E3
102
{ACAD_XDICTIONARY
360
1F7
102
}
330
2
100
AcDbSymbolTableRecord
100
AcDbLayerTableRecord
  2
AM_CL
 70
     0
 62
     1
  6
Amconstr
370
    15
390
F
1001
AcAecLayerStandard
1000

1000

  0
LAYER
  5
1E6
102
{ACAD_XDICTIONARY
360
1F9
102
}
330
2
100
AcDbSymbolTableRecord
100
AcDbLayerTableRecord
  2
Seat Bottom
 70
     0
 62
   206
  6
Continuous
370
    -3
390
F
1001
AcAecLayerStandard
1000

1000

  0
LAYER
  5
230
330
2
100
AcDbSymbolTableRecord
100
AcDbLayerTableRecord
  2
Cushions
 70
     0
 62
    19
  6
Continuous
370
    -3
390
F
1001
AcAecLayerStandard
1000

1000

  0
LAYER
  5
28B
330
2
100
AcDbSymbolTableRecord
100
AcDbLayerTableRecord
  2
AM_5
 70
     0
 62
     3
  6
Continuous
370
    15
390
F
1001
AcAecLayerStandard
1000

1000

  0
LAYER
  5
28F
330
2
100
AcDbSymbolTableRecord
100
AcDbLayerTableRecord
  2
Defpoints
 70
     0
 62
     7
  6
Continuous
290
     0
370
    -3
390
F
  0
ENDTAB
  0
TABLE
  2
STYLE
  5
3
330
0
100
AcDbSymbolTable
 70
     4
  0
STYLE
  5
11
330
3
100
AcDbSymbolTableRecord
100
AcDbTextStyleTableRecord
  2
Standard
 70
     0
 40
0.0
 41
1.0
 50
0.0
 71
     0
 42
0.2
  3
txt
  4

  0
STYLE
  5
1C2
330
3
100
AcDbSymbolTableRecord
100
AcDbTextStyleTableRecord
  2

 70
     1
 40
0.0
 41
1.0
 50
0.0
 71
     0
 42
0.2
  3
genltshp.shx
  4

  0
STYLE
  5
1D2
330
3
100
AcDbSymbolTableRecord
100
AcDbTextStyleTableRecord
  2
ACANSTS
 70
     0
 40
1.0
 41
1.0
 50
0.0
 71
     0
 42
0.2
  3
romans.shx
  4

  0
STYLE
  5
1D3
330
3
100
AcDbSymbolTableRecord
100
AcDbTextStyleTableRecord
  2
ACANSGDT
 70
     0
 40
0.0
 41
1.0
 50
0.0
 71
     0
 42
0.2
  3
amgdt.shx
  4

  0
ENDTAB
  0
TABLE
  2
VIEW
  5
6
330
0
100
AcDbSymbolTable
 70
     0
  0
ENDTAB
  0
TABLE
  2
UCS
  5
7
330
0
100
AcDbSymbolTable
 70
     0
  0
ENDTAB
  0
TABLE
  2
APPID
  5
9
330
0
100
AcDbSymbolTable
 70
    16
  0
APPID
  5
12
330
9
100
AcDbSymbolTableRecord
100
AcDbRegAppTableRecord
  2
ACAD
 70
     0
  0
APPID
  5
C2
330
9
100
AcDbSymbolTableRecord
100
AcDbRegAppTableRecord
  2
AcAecLayerStandard
 70
     0
  0
APPID
  5
CF
330
9
100
AcDbSymbolTableRecord
100
AcDbRegAppTableRecord
  2
ACAD_EXEMPT_FROM_CAD_STANDARDS
 70
     0
  0
APPID
  5
139
330
9
100
AcDbSymbolTableRecord
100
AcDbRegAppTableRecord
  2
ACAD_MLEADERVER
 70
     0
  0
APPID
  5
143
330
9
100
AcDbSymbolTableRecord
100
AcDbRegAppTableRecord
  2
MCAD_NO_VIS
 70
     0
  0
APPID
  5
144
330
9
100
AcDbSymbolTableRecord
100
AcDbRegAppTableRecord
  2
ACAD_TEMP_GRAPHIC
 70
     0
  0
APPID
  5
176
330
9
100
AcDbSymbolTableRecord
100
AcDbRegAppTableRecord
  2
AD_DRAW
 70
     0
  0
APPID
  5
179
330
9
100
AcDbSymbolTableRecord
100
AcDbRegAppTableRecord
  2
ACATTRIBSERVICES
 70
     0
  0
APPID
  5
19A
330
9
100
AcDbSymbolTableRecord
100
AcDbRegAppTableRecord
  2
DESIGNERASSEMBLIES
 70
     0
  0
APPID
  5
1A0
330
9
100
AcDbSymbolTableRecord
100
AcDbRegAppTableRecord
  2
ACADM_DIM_EDIT
 70
     0
  0
APPID
  5
1A1
330
9
100
AcDbSymbolTableRecord
100
AcDbRegAppTableRecord
  2
AMDT_DM_ADJ
 70
     0
  0
APPID
  5
2A9
330
9
100
AcDbSymbolTableRecord
100
AcDbRegAppTableRecord
  2
ACAD_DSTYLE_DIMINSPECT
 70
     0
  0
APPID
  5
810
330
9
100
AcDbSymbolTableRecord
100
AcDbRegAppTableRecord
  2
ACAD_DSTYLE_DIMARC_LENGTH_SYMBOL
 70
     0
  0
APPID
  5
811
330
9
100
AcDbSymbolTableRecord
100
AcDbRegAppTableRecord
  2
ACAD_DSTYLE_DIM_LINETYPE
 70
     0
  0
APPID
  5
812
330
9
100
AcDbSymbolTableRecord
100
AcDbRegAppTableRecord
  2
ACAD_DSTYLE_DIM_EXT1_LINETYPE
 70
     0
  0
APPID
  5
813
330
9
100
AcDbSymbolTableRecord
100
AcDbRegAppTableRecord
  2
ACAD_DSTYLE_DIM_EXT2_LINETYPE
 70
     0
  0
ENDTAB
  0
TABLE
  2
DIMSTYLE
  5
A
330
0
100
AcDbSymbolTable
 70
     9
100
AcDbDimStyleTable
 71
     2
340
1B9
340
27
  0
DIMSTYLE
105
27
330
A
100
AcDbSymbolTableRecord
100
AcDbDimStyleTableRecord
  2
Standard
 70
     0
340
11
  0
DIMSTYLE
105
1B9
102
{ACAD_REACTORS
330
1A9
102
}
330
A
100
AcDbSymbolTableRecord
100
AcDbDimStyleTableRecord
  2
AM_ANSI
 70
     0
  4
mm
 41
0.12
 42
0.05
 43
0.5
 44
0.1
 47
0.1
 48
0.1
 78
     7
 79
     2
140
0.12
141
0.0
146
0.71
147
0.06
176
   256
177
   256
178
     2
274
     4
284
     7
340
11
371
    -1
372
    -1
1001
ACAD_DSTYLE_DIMARC_LENGTH_SYMBOL
1070
   379
1070
     1
1001
ACAD_DSTYLE_DIM_LINETYPE
1070
   380
1005
14
1001
ACAD_DSTYLE_DIM_EXT1_LINETYPE
1070
   381
1005
14
1001
ACAD_DSTYLE_DIM_EXT2_LINETYPE
1070
   382
1005
14
  0
DIMSTYLE
105
1C7
330
A
100
AcDbSymbolTableRecord
100
AcDbDimStyleTableRecord
  2
AM_ANSI$3
 70
     0
  4
mm
 41
0.12
 42
0.05
 43
0.5
 44
0.1
 47
0.1
 48
0.1
 78
     7
 79
     2
140
0.12
141
0.0
146
0.71
147
0.06
176
   256
177
   256
178
     2
274
     4
284
     7
288
     1
289
     0
340
11
371
    -1
372
    -1
1001
ACAD_DSTYLE_DIMARC_LENGTH_SYMBOL
1070
   379
1070
     1
1001
ACAD_DSTYLE_DIM_LINETYPE
1070
   380
1005
14
1001
ACAD_DSTYLE_DIM_EXT1_LINETYPE
1070
   381
1005
14
1001
ACAD_DSTYLE_DIM_EXT2_LINETYPE
1070
   382
1005
14
  0
DIMSTYLE
105
1C8
330
A
100
AcDbSymbolTableRecord
100
AcDbDimStyleTableRecord
  2
AM_ANSI$4
 70
     0
  4
mm
 41
0.12
 42
0.05
 43
0.5
 44
0.1
 47
0.1
 48
0.1
 78
     7
 79
     2
140
0.12
141
0.0
146
0.71
147
0.06
176
   256
177
   256
178
     2
274
     4
284
     7
340
11
371
    -1
372
    -1
1001
ACAD_DSTYLE_DIMARC_LENGTH_SYMBOL
1070
   379
1070
     1
1001
ACAD_DSTYLE_DIM_LINETYPE
1070
   380
1005
14
1001
ACAD_DSTYLE_DIM_EXT1_LINETYPE
1070
   381
1005
14
1001
ACAD_DSTYLE_DIM_EXT2_LINETYPE
1070
   382
1005
14
  0
DIMSTYLE
105
1C9
330
A
100
AcDbSymbolTableRecord
100
AcDbDimStyleTableRecord
  2
AM_ANSI$7
 70
     0
  4
mm
 41
0.12
 42
0.05
 43
0.5
 44
0.1
 47
0.1
 48
0.1
 78
     7
 79
     2
140
0.12
141
0.0
146
0.71
147
0.06
176
   256
177
   256
178
     2
274
     4
284
     7
340
11
371
    -1
372
    -1
1001
ACAD_DSTYLE_DIMARC_LENGTH_SYMBOL
1070
   379
1070
     1
1001
ACAD_DSTYLE_DIM_LINETYPE
1070
   380
1005
14
1001
ACAD_DSTYLE_DIM_EXT1_LINETYPE
1070
   381
1005
14
1001
ACAD_DSTYLE_DIM_EXT2_LINETYPE
1070
   382
1005
14
  0
DIMSTYLE
105
1CA
330
A
100
AcDbSymbolTableRecord
100
AcDbDimStyleTableRecord
  2
AM_ANSI$SF
 70
     0
  4
mm
 41
0.12
 42
0.05
 43
0.5
 44
0.1
 47
0.1
 48
0.1
 75
     1
 76
     1
 78
     7
 79
     2
140
0.12
141
0.0
146
0.71
147
0.06
176
   256
177
   256
178
     2
274
     4
284
     7
340
11
371
    -1
372
    -1
1001
ACAD_DSTYLE_DIMARC_LENGTH_SYMBOL
1070
   379
1070
     1
1001
ACAD_DSTYLE_DIM_LINETYPE
1070
   380
1005
14
1001
ACAD_DSTYLE_DIM_EXT1_LINETYPE
1070
   381
1005
14
1001
ACAD_DSTYLE_DIM_EXT2_LINETYPE
1070
   382
1005
14
  0
DIMSTYLE
105
1CF
330
A
100
AcDbSymbolTableRecord
100
AcDbDimStyleTableRecord
  2
AM_ANSI$SH
 70
     0
  4
mm
 41
0.12
 42
0.05
 43
0.5
 44
0.1
 47
0.1
 48
0.1
 75
     1
 76
     1
 78
     7
 79
     2
140
0.12
141
0.0
146
0.71
147
0.06
173
     1
176
   256
177
   256
178
     2
274
     4
284
     7
340
11
343
1CB
371
    -1
372
    -1
1001
ACAD_DSTYLE_DIMARC_LENGTH_SYMBOL
1070
   379
1070
     1
1001
ACAD_DSTYLE_DIM_LINETYPE
1070
   380
1005
14
1001
ACAD_DSTYLE_DIM_EXT1_LINETYPE
1070
   381
1005
14
1001
ACAD_DSTYLE_DIM_EXT2_LINETYPE
1070
   382
1005
14
  0
DIMSTYLE
105
28C
102
{ACAD_REACTORS
330
1A9
330
67B
330
6B3
330
6D7
330
6FB
330
733
330
757
102
}
330
A
100
AcDbSymbolTableRecord
100
AcDbDimStyleTableRecord
  2
AM_ANSI$0
 70
     0
  4
mm
 41
0.12
 42
0.05
 43
0.5
 44
0.1
 47
0.1
 48
0.1
 78
     7
 79
     2
140
0.12
141
0.0
146
0.71
147
0.06
176
   256
177
   256
178
     2
274
     4
284
     7
340
11
371
    -1
372
    -1
1001
ACAD_DSTYLE_DIMARC_LENGTH_SYMBOL
1070
   379
1070
     1
1001
ACAD_DSTYLE_DIM_LINETYPE
1070
   380
1005
14
1001
ACAD_DSTYLE_DIM_EXT1_LINETYPE
1070
   381
1005
14
1001
ACAD_DSTYLE_DIM_EXT2_LINETYPE
1070
   382
1005
14
  0
ENDTAB
  0
TABLE
  2
BLOCK_RECORD
  5
1
330
0
100
AcDbSymbolTable
 70
    17
  0
BLOCK_RECORD
  5
1F
102
{ACAD_XDICTIONARY
360
BB
102
}
330
1
100
AcDbSymbolTableRecord
100
AcDbBlockTableRecord
  2
*Model_Space
340
22
  0
BLOCK_RECORD
  5
58
330
1
100
AcDbSymbolTableRecord
100
AcDbBlockTableRecord
  2
*Paper_Space
340
59
  0
BLOCK_RECORD
  5
5D
330
1
100
AcDbSymbolTableRecord
100
AcDbBlockTableRecord
  2
*Paper_Space0
340
5E
  0
BLOCK_RECORD
  5
1CB
330
1
100
AcDbSymbolTableRecord
100
AcDbBlockTableRecord
  2
GENAXEH
340
0
  0
BLOCK_RECORD
  5
67C
330
1
100
AcDbSymbolTableRecord
100
AcDbBlockTableRecord
  2
*D9
340
0
  0
BLOCK_RECORD
  5
6B4
330
1
100
AcDbSymbolTableRecord
100
AcDbBlockTableRecord
  2
*D10
340
0
  0
BLOCK_RECORD
  5
6D8
330
1
100
AcDbSymbolTableRecord
100
AcDbBlockTableRecord
  2
*D11
340
0
  0
BLOCK_RECORD
  5
6FC
330
1
100
AcDbSymbolTableRecord
100
AcDbBlockTableRecord
  2
*D12
340
0
  0
BLOCK_RECORD
  5
734
330
1
100
AcDbSymbolTableRecord
100
AcDbBlockTableRecord
  2
*D13
340
0
  0
BLOCK_RECORD
  5
758
330
1
100
AcDbSymbolTableRecord
100
AcDbBlockTableRecord
  2
*D14
340
0
  0
BLOCK_RECORD
  5
77C
330
1
100
AcDbSymbolTableRecord
100
AcDbBlockTableRecord
  2
*D15
340
0
  0
BLOCK_RECORD
  5
7A0
330
1
100
AcDbSymbolTableRecord
100
AcDbBlockTableRecord
  2
*D16
340
0
  0
ENDTAB
  0
ENDSEC
  0
SECTION
  2
BLOCKS
  0
BLOCK
  5
20
330
1F
100
AcDbEntity
  8
0
100
AcDbBlockBegin
  2
*Model_Space
 70
     0
 10
0.0
 20
0.0
 30
0.0
  3
*Model_Space
  1

  0
ENDBLK
  5
21
330
1F
100
AcDbEntity
  8
0
100
AcDbBlockEnd
  0
BLOCK
  5
5A
330
58
100
AcDbEntity
 67
     1
  8
0
100
AcDbBlockBegin
  2
*Paper_Space
 70
     0
 10
0.0
 20
0.0
 30
0.0
  3
*Paper_Space
  1

  0
ENDBLK
  5
5B
330
58
100
AcDbEntity
 67
     1
  8
0
100
AcDbBlockEnd
  0
BLOCK
  5
5F
330
5D
100
AcDbEntity
 67
     1
  8
0
100
AcDbBlockBegin
  2
*Paper_Space0
 70
     0
 10
0.0
 20
0.0
 30
0.0
  3
*Paper_Space0
  1

  0
ENDBLK
  5
60
330
5D
100
AcDbEntity
 67
     1
  8
0
100
AcDbBlockEnd
  0
BLOCK
  5
1CD
330
1CB
100
AcDbEntity
  8
0
100
AcDbBlockBegin
  2
GENAXEH
 70
     0
 10
0.0
 20
0.0
 30
0.0
  3
GENAXEH
  1

  0
LINE
  5
1CC
330
1CB
100
AcDbEntity
  8
0
100
AcDbLine
 10
-1.0
 20
0.0
 30
0.0
 11
1.0
 21
0.0
 31
0.0
  0
ENDBLK
  5
1CE
330
1CB
100
AcDbEntity
  8
0
100
AcDbBlockEnd
  0
BLOCK
  5
67D
330
67C
100
AcDbEntity
  8
0
100
AcDbBlockBegin
  2
*D9
 70
     1
 10
0.0
 20
0.0
 30
0.0
  3
*D9
  1

  0
LINE
  5
6A9
330
67C
100
AcDbEntity
  8
AM_5
  6
ByBlock
100
AcDbLine
 10
-9.480477349908017
 20
163.8824965087171
 30
0.0
 11
-16.70077292233535
 21
163.8824965087171
 31
0.0
  0
LINE
  5
6AA
330
67C
100
AcDbEntity
  8
AM_5
  6
ByBlock
100
AcDbLine
 10
-9.480477349908021
 20
136.6324965087171
 30
0.0
 11
-16.70077292233535
 21
136.6324965087171
 31
0.0
  0
LINE
  5
6AB
330
67C
100
AcDbEntity
  8
AM_5
  6
ByBlock
100
AcDbLine
 10
-16.60077292233535
 20
163.7624965087171
 30
0.0
 11
-16.60077292233535
 21
150.3774965087171
 31
0.0
  0
LINE
  5
6AC
330
67C
100
AcDbEntity
  8
AM_5
  6
ByBlock
100
AcDbLine
 10
-16.60077292233535
 20
136.7524965087171
 30
0.0
 11
-16.60077292233535
 21
150.1374965087171
 31
0.0
  0
SOLID
  5
6AD
330
67C
100
AcDbEntity
  8
AM_5
100
AcDbTrace
 10
-16.62077292233535
 20
163.7624965087171
 30
0.0
 11
-16.58077292233535
 21
163.7624965087171
 31
0.0
 12
-16.60077292233535
 22
163.8824965087171
 32
0.0
 13
-16.60077292233535
 23
163.8824965087171
 33
0.0
  0
SOLID
  5
6AE
330
67C
100
AcDbEntity
  8
AM_5
100
AcDbTrace
 10
-16.62077292233535
 20
136.7524965087171
 30
0.0
 11
-16.58077292233535
 21
136.7524965087171
 31
0.0
 12
-16.60077292233535
 22
136.6324965087171
 32
0.0
 13
-16.60077292233535
 23
136.6324965087171
 33
0.0
  0
MTEXT
  5
6AF
330
67C
100
AcDbEntity
  8
AM_5
 62
     2
100
AcDbMText
 10
-16.60077292233537
 20
150.2574965087171
 30
0.0
 40
0.12
 41
0.0
 71
     5
 72
     1
  1
\A1;27.250 [692.15mm]
 73
     1
 44
1.0
1001
ACAD
1000
MTEXTBEGIN
1070
    73
1070
     1
1070
    44
1040
1.0
1070
    74
1070
     0
1000
MTEXTEND
  0
POINT
  5
6B0
330
67C
100
AcDbEntity
  8
Defpoints
 62
     0
100
AcDbPoint
 10
-9.430477349908017
 20
163.8824965087171
 30
0.0
  0
POINT
  5
6B1
330
67C
100
AcDbEntity
  8
Defpoints
 62
     0
100
AcDbPoint
 10
-9.43047734990802
 20
136.6324965087171
 30
0.0
  0
POINT
  5
6B2
330
67C
100
AcDbEntity
  8
Defpoints
 62
     0
100
AcDbPoint
 10
-16.60077292233535
 20
136.6324965087171
 30
0.0
  0
ENDBLK
  5
67E
330
67C
100
AcDbEntity
  8
0
100
AcDbBlockEnd
  0
BLOCK
  5
6B5
330
6B4
100
AcDbEntity
  8
0
100
AcDbBlockBegin
  2
*D10
 70
     1
 10
0.0
 20
0.0
 30
0.0
  3
*D10
  1

  0
LINE
  5
6CD
330
6B4
100
AcDbEntity
  8
AM_5
  6
ByBlock
100
AcDbLine
 10
-116.7938728159751
 20
90.36814653552806
 30
0.0
 11
-120.0984526330941
 21
90.36814653552806
 31
0.0
  0
LINE
  5
6CE
102
{ACAD_REACTORS
330
742
102
}
330
6B4
100
AcDbEntity
  8
AM_5
  6
ByBlock
100
AcDbLine
 10
-116.7938728159751
 20
71.36814653552807
 30
0.0
 11
-120.0984526330941
 21
71.36814653552807
 31
0.0
  0
LINE
  5
6CF
330
6B4
100
AcDbEntity
  8
AM_5
  6
ByBlock
100
AcDbLine
 10
-119.9984526330942
 20
90.24814653552805
 30
0.0
 11
-119.9984526330942
 21
80.98814653552807
 31
0.0
  0
LINE
  5
6D0
330
6B4
100
AcDbEntity
  8
AM_5
  6
ByBlock
100
AcDbLine
 10
-119.9984526330942
 20
71.48814653552808
 30
0.0
 11
-119.9984526330942
 21
80.74814653552806
 31
0.0
  0
SOLID
  5
6D1
330
6B4
100
AcDbEntity
  8
AM_5
100
AcDbTrace
 10
-120.0184526330942
 20
90.24814653552805
 30
0.0
 11
-119.9784526330942
 21
90.24814653552805
 31
0.0
 12
-119.9984526330942
 22
90.36814653552806
 32
0.0
 13
-119.9984526330942
 23
90.36814653552806
 33
0.0
  0
SOLID
  5
6D2
330
6B4
100
AcDbEntity
  8
AM_5
100
AcDbTrace
 10
-120.0184526330942
 20
71.48814653552808
 30
0.0
 11
-119.9784526330942
 21
71.48814653552808
 31
0.0
 12
-119.9984526330942
 22
71.36814653552807
 32
0.0
 13
-119.9984526330942
 23
71.36814653552807
 33
0.0
  0
MTEXT
  5
6D3
330
6B4
100
AcDbEntity
  8
AM_5
 62
     2
100
AcDbMText
 10
-119.9984526330942
 20
80.86814653552805
 30
0.0
 40
0.12
 41
0.0
 71
     5
 72
     1
  1
\A1;19.000 [482.60mm]
 73
     1
 44
1.0
1001
ACAD
1000
MTEXTBEGIN
1070
    73
1070
     1
1070
    44
1040
1.0
1070
    74
1070
     0
1000
MTEXTEND
  0
POINT
  5
6D4
330
6B4
100
AcDbEntity
  8
Defpoints
 62
     0
100
AcDbPoint
 10
-116.7438728159752
 20
90.36814653552806
 30
0.0
  0
POINT
  5
6D5
330
6B4
100
AcDbEntity
  8
Defpoints
 62
     0
100
AcDbPoint
 10
-116.7438728159752
 20
71.36814653552807
 30
0.0
  0
POINT
  5
6D6
330
6B4
100
AcDbEntity
  8
Defpoints
 62
     0
100
AcDbPoint
 10
-119.9984526330942
 20
71.36814653552807
 30
0.0
  0
ENDBLK
  5
6B6
330
6B4
100
AcDbEntity
  8
0
100
AcDbBlockEnd
  0
BLOCK
  5
6D9
330
6D8
100
AcDbEntity
  8
0
100
AcDbBlockBegin
  2
*D11
 70
     1
 10
0.0
 20
0.0
 30
0.0
  3
*D11
  1

  0
LINE
  5
6F1
330
6D8
100
AcDbEntity
  8
AM_5
  6
ByBlock
100
AcDbLine
 10
26.47067093876773
 20
76.54197661119846
 30
0.0
 11
32.04106864014054
 21
76.54197661119845
 31
0.0
  0
LINE
  5
6F2
102
{ACAD_REACTORS
330
70A
102
}
330
6D8
100
AcDbEntity
  8
AM_5
  6
ByBlock
100
AcDbLine
 10
26.47067093876773
 20
90.04197661119848
 30
0.0
 11
32.04106864014054
 21
90.04197661119846
 31
0.0
  0
LINE
  5
6F3
330
6D8
100
AcDbEntity
  8
AM_5
  6
ByBlock
100
AcDbLine
 10
31.94106864014055
 20
76.66197661119847
 30
0.0
 11
31.94106864014055
 21
83.17197661119847
 31
0.0
  0
LINE
  5
6F4
330
6D8
100
AcDbEntity
  8
AM_5
  6
ByBlock
100
AcDbLine
 10
31.94106864014055
 20
89.92197661119847
 30
0.0
 11
31.94106864014055
 21
83.41197661119847
 31
0.0
  0
SOLID
  5
6F5
330
6D8
100
AcDbEntity
  8
AM_5
100
AcDbTrace
 10
31.92106864014054
 20
76.66197661119847
 30
0.0
 11
31.96106864014054
 21
76.66197661119847
 31
0.0
 12
31.94106864014055
 22
76.54197661119846
 32
0.0
 13
31.94106864014055
 23
76.54197661119846
 33
0.0
  0
SOLID
  5
6F6
330
6D8
100
AcDbEntity
  8
AM_5
100
AcDbTrace
 10
31.92106864014055
 20
89.92197661119847
 30
0.0
 11
31.96106864014055
 21
89.92197661119847
 31
0.0
 12
31.94106864014055
 22
90.04197661119848
 32
0.0
 13
31.94106864014055
 23
90.04197661119848
 33
0.0
  0
MTEXT
  5
6F7
330
6D8
100
AcDbEntity
  8
AM_5
 62
     2
100
AcDbMText
 10
31.94106864014053
 20
83.29197661119847
 30
0.0
 40
0.12
 41
0.0
 71
     5
 72
     1
  1
\A1;13.500 [342.90mm]
 73
     1
 44
1.0
1001
ACAD
1000
MTEXTBEGIN
1070
    73
1070
     1
1070
    44
1040
1.0
1070
    74
1070
     0
1000
MTEXTEND
  0
POINT
  5
6F8
330
6D8
100
AcDbEntity
  8
Defpoints
 62
     0
100
AcDbPoint
 10
26.42067093876773
 20
76.54197661119846
 30
0.0
  0
POINT
  5
6F9
330
6D8
100
AcDbEntity
  8
Defpoints
 62
     0
100
AcDbPoint
 10
26.42067093876773
 20
90.04197661119848
 30
0.0
  0
POINT
  5
6FA
330
6D8
100
AcDbEntity
  8
Defpoints
 62
     0
100
AcDbPoint
 10
31.94106864014055
 20
90.04197661119848
 30
0.0
  0
ENDBLK
  5
6DA
330
6D8
100
AcDbEntity
  8
0
100
AcDbBlockEnd
  0
BLOCK
  5
6FD
330
6FC
100
AcDbEntity
  8
0
100
AcDbBlockBegin
  2
*D12
 70
     1
 10
0.0
 20
0.0
 30
0.0
  3
*D12
  1

  0
LINE
  5
729
330
6FC
100
AcDbEntity
  8
AM_5
  6
ByBlock
100
AcDbLine
 10
26.47067093876773
 20
90.09197661119847
 30
0.0
 11
26.47067093876773
 21
93.72992779523725
 31
0.0
  0
LINE
  5
72A
330
6FC
100
AcDbEntity
  8
AM_5
  6
ByBlock
100
AcDbLine
 10
8.920670938767727
 20
90.09197661119847
 30
0.0
 11
8.920670938767727
 21
93.72992779523725
 31
0.0
  0
LINE
  5
72B
330
6FC
100
AcDbEntity
  8
AM_5
  6
ByBlock
100
AcDbLine
 10
26.35067093876773
 20
93.62992779523725
 30
0.0
 11
18.60567093876772
 21
93.62992779523725
 31
0.0
  0
LINE
  5
72C
330
6FC
100
AcDbEntity
  8
AM_5
  6
ByBlock
100
AcDbLine
 10
9.040670938767727
 20
93.62992779523725
 30
0.0
 11
16.78567093876772
 21
93.62992779523725
 31
0.0
  0
SOLID
  5
72D
330
6FC
100
AcDbEntity
  8
AM_5
100
AcDbTrace
 10
26.35067093876773
 20
93.64992779523724
 30
0.0
 11
26.35067093876773
 21
93.60992779523725
 31
0.0
 12
26.47067093876773
 22
93.62992779523725
 32
0.0
 13
26.47067093876773
 23
93.62992779523725
 33
0.0
  0
SOLID
  5
72E
330
6FC
100
AcDbEntity
  8
AM_5
100
AcDbTrace
 10
9.040670938767727
 20
93.64992779523724
 30
0.0
 11
9.040670938767727
 21
93.60992779523725
 31
0.0
 12
8.920670938767727
 22
93.62992779523725
 32
0.0
 13
8.920670938767727
 23
93.62992779523725
 33
0.0
  0
MTEXT
  5
72F
330
6FC
100
AcDbEntity
  8
AM_5
 62
     2
100
AcDbMText
 10
17.69567093876772
 20
93.62992779523725
 30
0.0
 40
0.12
 41
0.0
 71
     5
 72
     1
  1
\A1;17.550 [445.77mm]
 73
     1
 44
1.0
1001
ACAD
1000
MTEXTBEGIN
1070
    73
1070
     1
1070
    44
1040
1.0
1070
    74
1070
     0
1000
MTEXTEND
  0
POINT
  5
730
330
6FC
100
AcDbEntity
  8
Defpoints
 62
     0
100
AcDbPoint
 10
26.47067093876773
 20
90.04197661119848
 30
0.0
  0
POINT
  5
731
330
6FC
100
AcDbEntity
  8
Defpoints
 62
     0
100
AcDbPoint
 10
8.920670938767727
 20
90.04197661119848
 30
0.0
  0
POINT
  5
732
330
6FC
100
AcDbEntity
  8
Defpoints
 62
     0
100
AcDbPoint
 10
8.920670938767727
 20
93.62992779523725
 30
0.0
  0
ENDBLK
  5
6FE
330
6FC
100
AcDbEntity
  8
0
100
AcDbBlockEnd
  0
BLOCK
  5
735
330
734
100
AcDbEntity
  8
0
100
AcDbBlockBegin
  2
*D13
 70
     1
 10
0.0
 20
0.0
 30
0.0
  3
*D13
  1

  0
LINE
  5
74D
330
734
100
AcDbEntity
  8
AM_5
  6
ByBlock
100
AcDbLine
 10
-100.2438728159751
 20
71.31814653552807
 30
0.0
 11
-100.2438728159751
 21
69.37034318715962
 31
0.0
  0
LINE
  5
74E
330
734
100
AcDbEntity
  8
AM_5
  6
ByBlock
100
AcDbLine
 10
-116.7438728159752
 20
71.31814653552807
 30
0.0
 11
-116.7438728159752
 21
69.37034318715962
 31
0.0
  0
LINE
  5
74F
330
734
100
AcDbEntity
  8
AM_5
  6
ByBlock
100
AcDbLine
 10
-100.3638728159752
 20
69.47034318715961
 30
0.0
 11
-107.6438728159752
 21
69.47034318715961
 31
0.0
  0
LINE
  5
750
330
734
100
AcDbEntity
  8
AM_5
  6
ByBlock
100
AcDbLine
 10
-116.6238728159751
 20
69.47034318715961
 30
0.0
 11
-109.3438728159751
 21
69.47034318715961
 31
0.0
  0
SOLID
  5
751
330
734
100
AcDbEntity
  8
AM_5
100
AcDbTrace
 10
-100.3638728159752
 20
69.49034318715961
 30
0.0
 11
-100.3638728159752
 21
69.45034318715961
 31
0.0
 12
-100.2438728159751
 22
69.47034318715961
 32
0.0
 13
-100.2438728159751
 23
69.47034318715961
 33
0.0
  0
SOLID
  5
752
330
734
100
AcDbEntity
  8
AM_5
100
AcDbTrace
 10
-116.6238728159751
 20
69.49034318715961
 30
0.0
 11
-116.6238728159751
 21
69.45034318715961
 31
0.0
 12
-116.7438728159752
 22
69.47034318715961
 32
0.0
 13
-116.7438728159752
 23
69.47034318715961
 33
0.0
  0
MTEXT
  5
753
330
734
100
AcDbEntity
  8
AM_5
 62
     2
100
AcDbMText
 10
-108.4938728159752
 20
69.47034318715961
 30
0.0
 40
0.12
 41
0.0
 71
     5
 72
     1
  1
\A1;16.500 [419.10mm]
 73
     1
 44
1.0
1001
ACAD
1000
MTEXTBEGIN
1070
    73
1070
     1
1070
    44
1040
1.0
1070
    74
1070
     0
1000
MTEXTEND
  0
POINT
  5
754
330
734
100
AcDbEntity
  8
Defpoints
 62
     0
100
AcDbPoint
 10
-100.2438728159751
 20
71.36814653552807
 30
0.0
  0
POINT
  5
755
330
734
100
AcDbEntity
  8
Defpoints
 62
     0
100
AcDbPoint
 10
-116.7438728159752
 20
71.36814653552807
 30
0.0
  0
POINT
  5
756
330
734
100
AcDbEntity
  8
Defpoints
 62
     0
100
AcDbPoint
 10
-116.7438728159752
 20
69.47034318715961
 30
0.0
  0
ENDBLK
  5
736
330
734
100
AcDbEntity
  8
0
100
AcDbBlockEnd
  0
BLOCK
  5
759
330
758
100
AcDbEntity
  8
0
100
AcDbBlockBegin
  2
*D14
 70
     1
 10
0.0
 20
0.0
 30
0.0
  3
*D14
  1

  0
LINE
  5
771
330
758
100
AcDbEntity
  8
AM_5
  6
ByBlock
100
AcDbLine
 10
3.083944628305403
 20
90.09197661119847
 30
0.0
 11
3.083944628305404
 21
95.78375810936325
 31
0.0
  0
LINE
  5
772
330
758
100
AcDbEntity
  8
AM_5
  6
ByBlock
100
AcDbLine
 10
-17.4160553716946
 20
90.09197661119847
 30
0.0
 11
-17.4160553716946
 21
95.78375810936325
 31
0.0
  0
LINE
  5
773
330
758
100
AcDbEntity
  8
AM_5
  6
ByBlock
100
AcDbLine
 10
2.963944628305404
 20
95.68375810936325
 30
0.0
 11
-6.276055371694598
 21
95.68375810936325
 31
0.0
  0
LINE
  5
774
330
758
100
AcDbEntity
  8
AM_5
  6
ByBlock
100
AcDbLine
 10
-17.2960553716946
 20
95.68375810936325
 30
0.0
 11
-8.056055371694599
 21
95.68375810936325
 31
0.0
  0
SOLID
  5
775
330
758
100
AcDbEntity
  8
AM_5
100
AcDbTrace
 10
2.963944628305404
 20
95.70375810936324
 30
0.0
 11
2.963944628305404
 21
95.66375810936326
 31
0.0
 12
3.083944628305404
 22
95.68375810936325
 32
0.0
 13
3.083944628305404
 23
95.68375810936325
 33
0.0
  0
SOLID
  5
776
330
758
100
AcDbEntity
  8
AM_5
100
AcDbTrace
 10
-17.2960553716946
 20
95.70375810936324
 30
0.0
 11
-17.2960553716946
 21
95.66375810936326
 31
0.0
 12
-17.4160553716946
 22
95.68375810936325
 32
0.0
 13
-17.4160553716946
 23
95.68375810936325
 33
0.0
  0
MTEXT
  5
777
330
758
100
AcDbEntity
  8
AM_5
 62
     2
100
AcDbMText
 10
-7.166055371694597
 20
95.68375810936325
 30
0.0
 40
0.12
 41
0.0
 71
     5
 72
     1
  1
\A1;20.500 [520.70mm]
 73
     1
 44
1.0
1001
ACAD
1000
MTEXTBEGIN
1070
    73
1070
     1
1070
    44
1040
1.0
1070
    74
1070
     0
1000
MTEXTEND
  0
POINT
  5
778
330
758
100
AcDbEntity
  8
Defpoints
 62
     0
100
AcDbPoint
 10
3.083944628305403
 20
90.04197661119846
 30
0.0
  0
POINT
  5
779
330
758
100
AcDbEntity
  8
Defpoints
 62
     0
100
AcDbPoint
 10
-17.4160553716946
 20
90.04197661119848
 30
0.0
  0
POINT
  5
77A
330
758
100
AcDbEntity
  8
Defpoints
 62
     0
100
AcDbPoint
 10
-17.4160553716946
 20
95.68375810936325
 30
0.0
  0
ENDBLK
  5
75A
330
758
100
AcDbEntity
  8
0
100
AcDbBlockEnd
  0
BLOCK
  5
77D
330
77C
100
AcDbEntity
  8
0
100
AcDbBlockBegin
  2
*D15
 70
     1
 10
0.0
 20
0.0
 30
0.0
  3
*D15
  1

  0
LINE
  5
7EC
330
77C
100
AcDbEntity
  8
AM_5
  6
ByBlock
100
AcDbLine
 10
-65.25208500430813
 20
91.31814653552803
 30
0.0
 11
-65.25208500430813
 21
87.0521366576596
 31
0.0
  0
LINE
  5
7ED
330
77C
100
AcDbEntity
  8
AM_5
  6
ByBlock
100
AcDbLine
 10
-76.50208500430813
 20
66.66814653552804
 30
0.0
 11
-76.50208500430813
 21
87.25213665765961
 31
0.0
  0
LINE
  5
7EE
330
77C
100
AcDbEntity
  8
AM_5
  6
ByBlock
100
AcDbLine
 10
-65.37208500430813
 20
87.1521366576596
 30
0.0
 11
-69.98708500430812
 21
87.1521366576596
 31
0.0
  0
LINE
  5
7EF
330
77C
100
AcDbEntity
  8
AM_5
  6
ByBlock
100
AcDbLine
 10
-76.38208500430812
 20
87.1521366576596
 30
0.0
 11
-71.76708500430812
 21
87.1521366576596
 31
0.0
  0
SOLID
  5
7F0
330
77C
100
AcDbEntity
  8
AM_5
100
AcDbTrace
 10
-65.37208500430813
 20
87.17213665765958
 30
0.0
 11
-65.37208500430813
 21
87.13213665765961
 31
0.0
 12
-65.25208500430813
 22
87.1521366576596
 32
0.0
 13
-65.25208500430813
 23
87.1521366576596
 33
0.0
  0
SOLID
  5
7F1
330
77C
100
AcDbEntity
  8
AM_5
100
AcDbTrace
 10
-76.38208500430812
 20
87.17213665765958
 30
0.0
 11
-76.38208500430812
 21
87.13213665765961
 31
0.0
 12
-76.50208500430813
 22
87.1521366576596
 32
0.0
 13
-76.50208500430813
 23
87.1521366576596
 33
0.0
  0
MTEXT
  5
7F2
330
77C
100
AcDbEntity
  8
AM_5
 62
     2
100
AcDbMText
 10
-70.87708500430813
 20
87.1521366576596
 30
0.0
 40
0.12
 41
0.0
 71
     5
 72
     1
  1
\A1;11.250 [285.75mm]
 73
     1
 44
1.0
1001
ACAD
1000
MTEXTBEGIN
1070
    73
1070
     1
1070
    44
1040
1.0
1070
    74
1070
     0
1000
MTEXTEND
  0
POINT
  5
7F3
330
77C
100
AcDbEntity
  8
Defpoints
 62
     0
100
AcDbPoint
 10
-65.25208500430813
 20
91.36814653552802
 30
0.0
  0
POINT
  5
7F4
330
77C
100
AcDbEntity
  8
Defpoints
 62
     0
100
AcDbPoint
 10
-76.50208500430813
 20
66.61814653552804
 30
0.0
  0
POINT
  5
7F5
330
77C
100
AcDbEntity
  8
Defpoints
 62
     0
100
AcDbPoint
 10
-76.50208500430813
 20
87.1521366576596
 30
0.0
  0
ENDBLK
  5
77E
330
77C
100
AcDbEntity
  8
0
100
AcDbBlockEnd
  0
BLOCK
  5
7A1
330
7A0
100
AcDbEntity
  8
0
100
AcDbBlockBegin
  2
*D16
 70
     1
 10
0.0
 20
0.0
 30
0.0
  3
*D16
  1

  0
LINE
  5
7B9
330
7A0
100
AcDbEntity
  8
AM_5
  6
ByBlock
100
AcDbLine
 10
-32.23966449487818
 20
65.06814653552805
 30
0.0
 11
-32.23966449487818
 21
63.70149640122615
 31
0.0
  0
LINE
  5
7BA
330
7A0
100
AcDbEntity
  8
AM_5
  6
ByBlock
100
AcDbLine
 10
-52.98966449487818
 20
65.06814653552805
 30
0.0
 11
-52.98966449487818
 21
63.70149640122615
 31
0.0
  0
LINE
  5
7BB
330
7A0
100
AcDbEntity
  8
AM_5
  6
ByBlock
100
AcDbLine
 10
-32.35966449487818
 20
63.80149640122616
 30
0.0
 11
-41.70466449487818
 21
63.80149640122616
 31
0.0
  0
LINE
  5
7BC
330
7A0
100
AcDbEntity
  8
AM_5
  6
ByBlock
100
AcDbLine
 10
-52.86966449487819
 20
63.80149640122616
 30
0.0
 11
-43.52466449487818
 21
63.80149640122616
 31
0.0
  0
SOLID
  5
7BD
330
7A0
100
AcDbEntity
  8
AM_5
100
AcDbTrace
 10
-32.35966449487818
 20
63.82149640122616
 30
0.0
 11
-32.35966449487818
 21
63.78149640122615
 31
0.0
 12
-32.23966449487818
 22
63.80149640122616
 32
0.0
 13
-32.23966449487818
 23
63.80149640122616
 33
0.0
  0
SOLID
  5
7BE
330
7A0
100
AcDbEntity
  8
AM_5
100
AcDbTrace
 10
-52.86966449487819
 20
63.82149640122616
 30
0.0
 11
-52.86966449487819
 21
63.78149640122615
 31
0.0
 12
-52.98966449487818
 22
63.80149640122616
 32
0.0
 13
-52.98966449487818
 23
63.80149640122616
 33
0.0
  0
MTEXT
  5
7BF
330
7A0
100
AcDbEntity
  8
AM_5
 62
     2
100
AcDbMText
 10
-42.61466449487818
 20
63.80149640122616
 30
0.0
 40
0.12
 41
0.0
 71
     5
 72
     1
  1
\A1;20.750 [527.05mm]
 73
     1
 44
1.0
1001
ACAD
1000
MTEXTBEGIN
1070
    73
1070
     1
1070
    44
1040
1.0
1070
    74
1070
     0
1000
MTEXTEND
  0
POINT
  5
7C0
330
7A0
100
AcDbEntity
  8
Defpoints
 62
     0
100
AcDbPoint
 10
-32.23966449487818
 20
65.11814653552804
 30
0.0
  0
POINT
  5
7C1
330
7A0
100
AcDbEntity
  8
Defpoints
 62
     0
100
AcDbPoint
 10
-52.98966449487818
 20
65.11814653552804
 30
0.0
  0
POINT
  5
7C2
330
7A0
100
AcDbEntity
  8
Defpoints
 62
     0
100
AcDbPoint
 10
-52.98966449487818
 20
63.80149640122616
 30
0.0
  0
ENDBLK
  5
7A2
330
7A0
100
AcDbEntity
  8
0
100
AcDbBlockEnd
  0
ENDSEC
  0
SECTION
  2
ENTITIES
  0
LWPOLYLINE
  5
107
330
1F
100
AcDbEntity
  8
Seat Back
100
AcDbPolyline
 90
        4
 70
     1
 43
0.0
 10
3.963107752754059
 20
16.87311787652172
 10
0.963107752754067
 20
55.1231178765217
 10
0.2108044843759091
 20
55.12311787652173
 10
3.210804484375898
 20
16.87311787652173
  0
LWPOLYLINE
  5
10B
330
1F
100
AcDbEntity
  8
Seat Sides
100
AcDbPolyline
 90
        9
 70
     1
 43
0.0
 10
3.210804484375902
 20
16.87311787652173
 10
0.8186476216308108
 20
47.37311787652173
 10
1.727813635107007
 20
47.37311787652173
 42
-0.3914699159356748
 10
3.721690390732109
 20
45.52950036715899
 10
4.992121827529903
 20
29.33149954798706
 42
0.4023166654735904
 10
7.060945904333194
 20
27.48928680720596
 10
21.88816043157587
 20
28.04530735197755
 42
-0.4252350155348209
 10
23.96310775275406
 20
26.04671212055919
 10
23.96310775275406
 20
16.87311787652173
  0
LWPOLYLINE
  5
216
330
1F
100
AcDbEntity
  8
Seat Bottom
100
AcDbPolyline
 90
        4
 70
     1
 43
0.0
 10
3.591967306880549
 20
21.60515856140917
 10
3.650659557788542
 20
20.85683236233226
 10
22.26257765037204
 20
21.55477929080413
 10
22.20388539946404
 20
22.30310548988104
  0
LWPOLYLINE
  5
21A
330
1F
100
AcDbEntity
  8
Seat Bottom
100
AcDbPolyline
 90
        4
 70
     0
 43
0.0
 10
22.62451319763801
 20
16.94010106316322
 10
22.26257765037204
 20
21.55477929080413
 10
21.51248054993634
 20
21.52665064953779
 10
21.87441609720231
 20
16.91197242189688
  0
CIRCLE
  5
23A
330
1F
100
AcDbEntity
  8
Seat Back
100
AcDbCircle
 10
-18.06426190960218
 20
36.32005164535819
 30
0.0
 40
0.125
  0
CIRCLE
  5
23B
330
1F
100
AcDbEntity
  8
Seat Back
100
AcDbCircle
 10
-11.31426190960218
 20
47.81038640202557
 30
0.0
 40
0.125
  0
CIRCLE
  5
23C
330
1F
100
AcDbEntity
  8
Seat Back
100
AcDbCircle
 10
-24.81426190960218
 20
47.81038640202557
 30
0.0
 40
0.125
  0
CIRCLE
  5
23D
330
1F
100
AcDbEntity
  8
Seat Back
100
AcDbCircle
 10
-18.06426190960218
 20
47.68538640202556
 30
0.0
 40
0.125
  0
CIRCLE
  5
23F
330
1F
100
AcDbEntity
  8
Seat Back
100
AcDbCircle
 10
-11.31426190960218
 20
28.8467895567937
 30
0.0
 40
0.125
  0
CIRCLE
  5
240
330
1F
100
AcDbEntity
  8
Seat Back
100
AcDbCircle
 10
-24.81426190960218
 20
28.8467895567937
 30
0.0
 40
0.125
  0
CIRCLE
  5
241
330
1F
100
AcDbEntity
  8
Seat Back
100
AcDbCircle
 10
-11.31426190960218
 20
36.32005164535819
 30
0.0
 40
0.125
  0
CIRCLE
  5
242
330
1F
100
AcDbEntity
  8
Seat Back
100
AcDbCircle
 10
-24.81426190960218
 20
36.32005164535819
 30
0.0
 40
0.125
  0
CIRCLE
  5
243
330
1F
100
AcDbEntity
  8
Seat Back
100
AcDbCircle
 10
-18.06426190960218
 20
28.8467895567937
 30
0.0
 40
0.125
  0
CIRCLE
  5
245
330
1F
100
AcDbEntity
  8
Cushions
100
AcDbCircle
 10
-47.08404048982115
 20
36.32005164535819
 30
0.0
 40
0.125
  0
CIRCLE
  5
246
330
1F
100
AcDbEntity
  8
Cushions
100
AcDbCircle
 10
-40.33404048982115
 20
47.81038640202557
 30
0.0
 40
0.125
  0
CIRCLE
  5
247
330
1F
100
AcDbEntity
  8
Cushions
100
AcDbCircle
 10
-53.83404048982114
 20
47.81038640202557
 30
0.0
 40
0.125
  0
CIRCLE
  5
248
330
1F
100
AcDbEntity
  8
Cushions
100
AcDbCircle
 10
-47.08404048982115
 20
47.68538640202557
 30
0.0
 40
0.125
  0
CIRCLE
  5
24B
330
1F
100
AcDbEntity
  8
Cushions
100
AcDbCircle
 10
-40.33404048982115
 20
36.32005164535819
 30
0.0
 40
0.125
  0
CIRCLE
  5
24C
330
1F
100
AcDbEntity
  8
Cushions
100
AcDbCircle
 10
-53.83404048982114
 20
36.32005164535819
 30
0.0
 40
0.125
  0
CIRCLE
  5
267
330
1F
100
AcDbEntity
  8
Cushions
100
AcDbCircle
 10
-47.08404048982115
 20
28.8467895567937
 30
0.0
 40
0.125
  0
CIRCLE
  5
268
330
1F
100
AcDbEntity
  8
Cushions
100
AcDbCircle
 10
-40.33404048982115
 20
28.8467895567937
 30
0.0
 40
0.125
  0
CIRCLE
  5
269
330
1F
100
AcDbEntity
  8
Cushions
100
AcDbCircle
 10
-53.83404048982114
 20
28.8467895567937
 30
0.0
 40
0.125
  0
LWPOLYLINE
  5
273
330
1F
100
AcDbEntity
  8
Cushions
100
AcDbPolyline
 90
        6
 70
     1
 43
0.0
 10
-55.33404048982115
 20
27.3467895567937
 10
-38.83404048982115
 20
27.3467895567937
 10
-38.83404048982116
 20
47.81038640202555
 10
-42.08070972423548
 20
53.12311787652173
 10
-52.08737125540681
 20
53.12311787652173
 10
-55.33404048982115
 20
47.81038640202557
  0
LWPOLYLINE
  5
36E
330
1F
100
AcDbEntity
  8
Seat Bottom
100
AcDbPolyline
 90
        4
 70
     1
 43
0.0
 10
55.23320229858336
 20
30.91280507521164
 10
55.23320229858336
 20
12.28780507521163
 10
34.73320229858336
 20
12.28780507521164
 10
34.73320229858336
 20
30.91280507521164
  0
LWPOLYLINE
  5
38A
330
1F
100
AcDbEntity
  8
Cushions
100
AcDbPolyline
 90
        4
 70
     1
 43
0.0
 10
-38.83404048982115
 20
3.715025577877
 10
-55.33404048982115
 20
3.715025577877003
 10
-55.33404048982115
 20
22.340025577877
 10
-38.83404048982115
 20
22.340025577877
  0
CIRCLE
  5
395
330
1F
100
AcDbEntity
  8
Cushions
100
AcDbCircle
 10
-53.83404048982114
 20
20.840025577877
 30
0.0
 40
0.125
  0
CIRCLE
  5
396
330
1F
100
AcDbEntity
  8
Cushions
100
AcDbCircle
 10
-40.33404048982115
 20
20.840025577877
 30
0.0
 40
0.125
  0
CIRCLE
  5
397
330
1F
100
AcDbEntity
  8
Cushions
100
AcDbCircle
 10
-40.33404048982115
 20
5.215025577877003
 30
0.0
 40
0.125
  0
CIRCLE
  5
398
330
1F
100
AcDbEntity
  8
Cushions
100
AcDbCircle
 10
-53.83404048982114
 20
5.215025577877003
 30
0.0
 40
0.125
  0
CIRCLE
  5
39D
330
1F
100
AcDbEntity
  8
Seat Bottom
100
AcDbCircle
 10
38.23320229858337
 20
29.41280507521164
 30
0.0
 40
0.125
  0
CIRCLE
  5
39E
330
1F
100
AcDbEntity
  8
Seat Bottom
100
AcDbCircle
 10
51.73320229858337
 20
29.41280507521164
 30
0.0
 40
0.125
  0
CIRCLE
  5
39F
330
1F
100
AcDbEntity
  8
Seat Bottom
100
AcDbCircle
 10
51.73320229858337
 20
13.78780507521164
 30
0.0
 40
0.125
  0
CIRCLE
  5
3A0
330
1F
100
AcDbEntity
  8
Seat Bottom
100
AcDbCircle
 10
38.23320229858337
 20
13.78780507521164
 30
0.0
 40
0.125
  0
LWPOLYLINE
  5
472
330
1F
100
AcDbEntity
  8
Seat Sides
100
AcDbPolyline
 90
        9
 70
     1
 43
0.0
 10
81.60456555578685
 20
36.90354786977646
 10
79.21240869304177
 20
67.40354786977646
 10
80.12157470651796
 20
67.40354786977646
 42
-0.3914699159356748
 10
82.11545146214305
 20
65.55993036041371
 10
83.38588289894085
 20
49.36192954124178
 42
0.4023166654735904
 10
85.45470697574414
 20
47.51971680046068
 10
100.2819215029868
 20
48.07573734523228
 42
-0.4252350155348209
 10
102.356868824165
 20
46.07714211381392
 10
102.356868824165
 20
36.90354786977646
  0
LWPOLYLINE
  5
473
330
1F
100
AcDbEntity
  8
Seat Sides
100
AcDbPolyline
 90
        9
 70
     1
 43
0.0
 10
125.8855797639203
 20
36.90354786977646
 10
128.2777366266654
 20
67.40354786977646
 10
127.3685706131892
 20
67.40354786977646
 42
0.3914699159356748
 10
125.3746938575641
 20
65.55993036041371
 10
124.1042624207663
 20
49.36192954124178
 42
-0.4023166654735904
 10
122.035438343963
 20
47.51971680046068
 10
107.2082238167204
 20
48.07573734523228
 42
0.4252350155348209
 10
105.1332764955422
 20
46.07714211381392
 10
105.1332764955422
 20
36.90354786977646
  0
CIRCLE
  5
475
330
1F
100
AcDbEntity
  8
Seat Back
100
AcDbCircle
 10
111.3742150437339
 20
77.54374674476064
 30
0.0
 40
0.125
  0
CIRCLE
  5
476
330
1F
100
AcDbEntity
  8
Seat Back
100
AcDbCircle
 10
118.1242150437339
 20
89.03408150142801
 30
0.0
 40
0.125
  0
CIRCLE
  5
477
330
1F
100
AcDbEntity
  8
Seat Back
100
AcDbCircle
 10
104.6242150437339
 20
89.03408150142801
 30
0.0
 40
0.125
  0
CIRCLE
  5
478
330
1F
100
AcDbEntity
  8
Seat Back
100
AcDbCircle
 10
111.3742150437339
 20
88.909081501428
 30
0.0
 40
0.125
  0
CIRCLE
  5
479
330
1F
100
AcDbEntity
  8
Seat Back
100
AcDbCircle
 10
118.1242150437339
 20
70.07048465619615
 30
0.0
 40
0.125
  0
CIRCLE
  5
47A
330
1F
100
AcDbEntity
  8
Seat Back
100
AcDbCircle
 10
104.6242150437339
 20
70.07048465619615
 30
0.0
 40
0.125
  0
CIRCLE
  5
47B
330
1F
100
AcDbEntity
  8
Seat Back
100
AcDbCircle
 10
118.1242150437339
 20
77.54374674476064
 30
0.0
 40
0.125
  0
CIRCLE
  5
47C
330
1F
100
AcDbEntity
  8
Seat Back
100
AcDbCircle
 10
104.6242150437339
 20
77.54374674476064
 30
0.0
 40
0.125
  0
CIRCLE
  5
47D
330
1F
100
AcDbEntity
  8
Seat Back
100
AcDbCircle
 10
111.3742150437339
 20
70.07048465619615
 30
0.0
 40
0.125
  0
LWPOLYLINE
  5
47E
330
1F
100
AcDbEntity
  8
Seat Bottom
100
AcDbPolyline
 90
        4
 70
     1
 43
0.0
 10
153.0329570974276
 20
66.85113680368043
 10
153.0329570974276
 20
48.22613680368043
 10
132.5329570974276
 20
48.22613680368043
 10
132.5329570974276
 20
66.85113680368043
  0
CIRCLE
  5
47F
330
1F
100
AcDbEntity
  8
Seat Bottom
100
AcDbCircle
 10
136.0329570974276
 20
65.35113680368043
 30
0.0
 40
0.125
  0
CIRCLE
  5
480
330
1F
100
AcDbEntity
  8
Seat Bottom
100
AcDbCircle
 10
149.5329570974276
 20
65.35113680368043
 30
0.0
 40
0.125
  0
CIRCLE
  5
481
330
1F
100
AcDbEntity
  8
Seat Bottom
100
AcDbCircle
 10
149.5329570974276
 20
49.72613680368043
 30
0.0
 40
0.125
  0
CIRCLE
  5
482
330
1F
100
AcDbEntity
  8
Seat Bottom
100
AcDbCircle
 10
136.0329570974276
 20
49.72613680368043
 30
0.0
 40
0.125
  0
LWPOLYLINE
  5
50A
330
1F
100
AcDbEntity
  8
Seat Back
100
AcDbPolyline
 90
       16
 70
     1
 43
0.0
 10
-24.77415634249176
 20
54.16601789542968
 42
-0.261274761029773
 10
-23.06759267518784
 20
55.12311787652173
 10
-13.06093114401651
 20
55.12311787652173
 42
-0.261274761029773
 10
-11.3543674767126
 20
54.16601789542968
 10
-8.107698242298269
 20
48.8532864209335
 42
-0.1380035656244322
 10
-7.814261909602187
 20
47.81038640202555
 10
-7.81426190960218
 20
16.87311787652173
 10
-11.81426190960218
 20
16.87311787652173
 10
-11.81426190960218
 20
17.37311787652173
 42
0.4142135623730953
 10
-12.81426190960218
 20
18.37311787652173
 10
-23.31426190960218
 20
18.37311787652173
 42
0.4142135623730951
 10
-24.31426190960218
 20
17.37311787652173
 10
-24.31426190960218
 20
16.87311787652173
 10
-28.31426190960218
 20
16.87311787652173
 10
-28.31426190960219
 20
47.81038640202557
 42
-0.1380035656244332
 10
-28.0208255769061
 20
48.85328642093353
  0
LINE
  5
51D
330
1F
100
AcDbEntity
  8
Seat Bottom
100
AcDbLine
 10
21.87441609720231
 20
16.91197242189688
 30
0.0
 11
22.62451319763801
 21
16.94010106316322
 31
0.0
  0
LWPOLYLINE
  5
530
330
1F
100
AcDbEntity
  8
Seat Bottom
100
AcDbPolyline
 90
       10
 70
     1
 43
0.0
 10
38.73320229858338
 20
1.236918503841553
 10
38.73320229858338
 20
0.7369185038415531
 10
34.73320229858337
 20
0.7369185038415535
 10
34.73320229858336
 20
9.17441850384155
 10
55.23320229858336
 20
9.17441850384155
 10
55.23320229858336
 20
0.7369185038415509
 10
51.23320229858336
 20
0.7369185038415514
 10
51.23320229858337
 20
1.236918503841553
 42
0.4142135623730951
 10
50.23320229858337
 20
2.236918503841553
 10
39.73320229858338
 20
2.236918503841553
 42
0.4142135623730951
  0
LWPOLYLINE
  5
53A
330
1F
100
AcDbEntity
  8
Seat Bottom
100
AcDbPolyline
 90
       10
 70
     1
 43
0.0
 10
136.5329570974276
 20
37.17525023231035
 10
136.5329570974276
 20
36.67525023231035
 10
132.5329570974276
 20
36.67525023231035
 10
132.5329570974276
 20
45.11275023231035
 10
153.0329570974276
 20
45.11275023231035
 10
153.0329570974276
 20
36.67525023231035
 10
149.0329570974276
 20
36.67525023231035
 10
149.0329570974276
 20
37.17525023231035
 42
0.4142135623730951
 10
148.0329570974276
 20
38.17525023231035
 10
137.5329570974276
 20
38.17525023231035
 42
0.4142135623730951
  0
LWPOLYLINE
  5
53B
330
1F
100
AcDbEntity
  8
Seat Back
100
AcDbPolyline
 90
       16
 70
     1
 43
0.0
 10
104.6643206108443
 20
95.38971299483213
 42
-0.261274761029773
 10
106.3708842781482
 20
96.34681297592418
 10
116.3775458093195
 20
96.34681297592418
 42
-0.261274761029773
 10
118.0841094766235
 20
95.38971299483213
 10
121.3307787110378
 20
90.07698152033595
 42
-0.1380035656244322
 10
121.6242150437339
 20
89.034081501428
 10
121.6242150437339
 20
58.09681297592418
 10
117.6242150437339
 20
58.09681297592418
 10
117.6242150437339
 20
58.59681297592418
 42
0.4142135623730953
 10
116.6242150437339
 20
59.59681297592418
 10
106.1242150437339
 20
59.59681297592418
 42
0.4142135623730951
 10
105.1242150437339
 20
58.59681297592418
 10
105.1242150437339
 20
58.09681297592418
 10
101.1242150437339
 20
58.09681297592418
 10
101.1242150437339
 20
89.03408150142801
 42
-0.1380035656244332
 10
101.4176513764299
 20
90.07698152033597
  0
LWPOLYLINE
  5
5DB
330
1F
100
AcDbEntity
  8
Seat Bottom
100
AcDbPolyline
 90
       10
 70
     1
 43
0.0
 10
-9.166055371694598
 20
70.07239479903212
 10
-17.4160553716946
 20
70.07239479903212
 10
-17.4160553716946
 20
74.34239479903212
 10
3.083944628305403
 20
74.34239479903212
 10
3.083944628305402
 20
70.07239479903212
 10
-5.166055371694596
 20
70.07239479903212
 10
-5.166055371694596
 20
70.57239479903213
 42
0.4142135623730951
 10
-6.166055371694596
 20
71.57239479903212
 10
-8.166055371694596
 20
71.57239479903212
 42
0.4142135623730951
 10
-9.166055371694596
 20
70.57239479903213
  0
LWPOLYLINE
  5
5DF
102
{ACAD_REACTORS
330
766
102
}
330
1F
100
AcDbEntity
  8
Seat Bottom
100
AcDbPolyline
 90
        4
 70
     1
 43
0.0
 10
-17.4160553716946
 20
76.54197661119846
 10
3.083944628305403
 20
76.54197661119846
 10
3.083944628305403
 20
90.04197661119846
 10
-17.4160553716946
 20
90.04197661119848
  0
LWPOLYLINE
  5
5EB
330
1F
100
AcDbEntity
  8
Seat Back
100
AcDbPolyline
 90
       12
 70
     1
 43
0.0
 10
-77.50208500430812
 20
65.61814653552804
 42
-0.4142135623730951
 10
-76.50208500430813
 20
66.61814653552804
 10
-74.50208500430813
 20
66.61814653552804
 42
-0.4142135623730951
 10
-73.50208500430813
 20
65.61814653552804
 10
-73.50208500430813
 20
65.11814653552804
 10
-65.25208500430813
 20
65.11814653552804
 10
-65.25208500430813
 20
91.36814653552802
 42
0.4142135623730948
 10
-66.25208500430812
 20
92.36814653552803
 10
-84.75208500430813
 20
92.36814653552805
 42
0.4142135623730953
 10
-85.75208500430813
 20
91.36814653552805
 10
-85.75208500430813
 20
65.11814653552804
 10
-77.50208500430812
 20
65.11814653552804
  0
LWPOLYLINE
  5
616
330
1F
100
AcDbEntity
  8
Seat Back
100
AcDbPolyline
 90
        4
 70
     1
 43
0.0
 10
-59.11958072574844
 20
91.66973080092573
 10
-52.98966449487818
 20
65.11814653552804
 10
-52.25888694628926
 20
65.28685982628593
 10
-58.3888031771595
 20
91.83844409168361
  0
LWPOLYLINE
  5
61F
330
1F
100
AcDbEntity
  8
Seat Bottom
100
AcDbPolyline
 90
        4
 70
     1
 43
0.0
 10
-53.26633684886926
 20
69.65060477386121
 10
-53.09455124508428
 20
68.90651957551717
 10
-39.74771379135351
 20
69.40702598003165
 10
-39.77581903679531
 20
70.15649919181353
  0
LWPOLYLINE
  5
629
330
1F
100
AcDbEntity
  8
Seat Bottom
100
AcDbPolyline
 90
        4
 70
     1
 43
0.0
 10
-39.74771379135351
 20
69.40702598003165
 10
-40.49718700313539
 20
69.37892073458986
 10
-40.33635402396663
 20
65.09004129008625
 10
-39.58688081218475
 20
65.11814653552804
  0
CIRCLE
  5
641
330
1F
100
AcDbEntity
  8
Seat Back
100
AcDbCircle
 10
-81.50208500430812
 20
88.24314653552804
 30
0.0
 40
0.125
  0
CIRCLE
  5
642
330
1F
100
AcDbEntity
  8
Seat Back
100
AcDbCircle
 10
-69.50208500430813
 20
88.24314653552804
 30
0.0
 40
0.125
  0
CIRCLE
  5
643
330
1F
100
AcDbEntity
  8
Seat Back
100
AcDbCircle
 10
-69.50208500430813
 20
73.24314653552804
 30
0.0
 40
0.125
  0
CIRCLE
  5
644
330
1F
100
AcDbEntity
  8
Seat Back
100
AcDbCircle
 10
-81.50208500430812
 20
73.24314653552804
 30
0.0
 40
0.125
  0
CIRCLE
  5
645
330
1F
100
AcDbEntity
  8
Cushions
100
AcDbCircle
 10
-114.4938728159752
 20
88.24314653552804
 30
0.0
 40
0.125
  0
CIRCLE
  5
646
330
1F
100
AcDbEntity
  8
Cushions
100
AcDbCircle
 10
-102.4938728159751
 20
88.24314653552804
 30
0.0
 40
0.125
  0
CIRCLE
  5
647
330
1F
100
AcDbEntity
  8
Cushions
100
AcDbCircle
 10
-102.4938728159751
 20
73.24314653552804
 30
0.0
 40
0.125
  0
CIRCLE
  5
648
330
1F
100
AcDbEntity
  8
Cushions
100
AcDbCircle
 10
-114.4938728159752
 20
73.24314653552804
 30
0.0
 40
0.125
  0
LWPOLYLINE
  5
649
102
{ACAD_REACTORS
330
6C2
330
742
102
}
330
1F
100
AcDbEntity
  8
Cushions
100
AcDbPolyline
 90
        4
 70
     1
 43
0.0
 10
-116.7438728159752
 20
71.36814653552807
 10
-100.2438728159751
 20
71.36814653552807
 10
-100.2438728159751
 20
90.36814653552802
 10
-116.7438728159752
 20
90.36814653552806
  0
CIRCLE
  5
655
330
1F
100
AcDbEntity
  8
Seat Bottom
100
AcDbCircle
 10
-14.9160553716946
 20
88.54197661119847
 30
0.0
 40
0.125
  0
CIRCLE
  5
656
330
1F
100
AcDbEntity
  8
Seat Bottom
100
AcDbCircle
 10
0.5839446283054031
 20
88.54197661119847
 30
0.0
 40
0.125
  0
CIRCLE
  5
657
330
1F
100
AcDbEntity
  8
Seat Bottom
100
AcDbCircle
 10
-14.9160553716946
 20
78.04197661119847
 30
0.0
 40
0.125
  0
CIRCLE
  5
658
330
1F
100
AcDbEntity
  8
Seat Bottom
100
AcDbCircle
 10
0.5839446283054031
 20
78.04197661119847
 30
0.0
 40
0.125
  0
CIRCLE
  5
665
330
1F
100
AcDbEntity
  8
Cushions
100
AcDbCircle
 10
9.920670938767727
 20
88.54197661119847
 30
0.0
 40
0.125
  0
CIRCLE
  5
666
330
1F
100
AcDbEntity
  8
Cushions
100
AcDbCircle
 10
25.42067093876773
 20
88.54197661119847
 30
0.0
 40
0.125
  0
CIRCLE
  5
667
330
1F
100
AcDbEntity
  8
Cushions
100
AcDbCircle
 10
9.920670938767727
 20
78.04197661119847
 30
0.0
 40
0.125
  0
CIRCLE
  5
668
330
1F
100
AcDbEntity
  8
Cushions
100
AcDbCircle
 10
25.42067093876773
 20
78.04197661119847
 30
0.0
 40
0.125
  0
LWPOLYLINE
  5
669
102
{ACAD_REACTORS
330
6E6
330
70A
102
}
330
1F
100
AcDbEntity
  8
Cushions
100
AcDbPolyline
 90
        4
 70
     1
 43
0.0
 10
8.920670938767727
 20
76.54197661119846
 10
8.920670938767727
 20
90.04197661119848
 10
26.42067093876773
 20
90.04197661119848
 10
26.42067093876773
 20
76.54197661119846
  0
LWPOLYLINE
  5
66C
102
{ACAD_REACTORS
330
68A
102
}
330
1F
100
AcDbEntity
  8
Seat Back
100
AcDbPolyline
 90
        6
 70
     1
 43
0.0
 10
-10.43047734990802
 20
162.8824965087171
 10
-10.43047734990802
 20
136.6324965087171
 10
10.06952265009198
 20
136.6324965087171
 10
10.06952265009198
 20
162.882496508717
 42
0.4142135623730948
 10
9.069522650091982
 20
163.882496508717
 10
-9.430477349908017
 20
163.8824965087171
 42
0.4142135623730953
  0
LWPOLYLINE
  5
66D
330
1F
100
AcDbEntity
  8
Seat Bottom
100
AcDbPolyline
 90
        4
 70
     1
 43
0.0
 10
57.90555228270552
 20
148.0563265843875
 10
78.40555228270551
 20
148.0563265843875
 10
78.40555228270551
 20
161.5563265843875
 10
57.90555228270552
 20
161.5563265843875
  0
LWPOLYLINE
  5
66E
330
1F
100
AcDbEntity
  8
Seat Bottom
100
AcDbPolyline
 90
        4
 70
     1
 43
0.0
 10
78.40555228270551
 20
145.8567447722211
 10
78.40555228270551
 20
141.5867447722211
 10
57.90555228270552
 20
141.5867447722211
 10
57.90555228270552
 20
145.8567447722211
  0
LWPOLYLINE
  5
66F
330
1F
100
AcDbEntity
  8
Seat Sides
100
AcDbPolyline
 90
        9
 70
     1
 43
0.0
 10
41.08194315952192
 20
147.632496508717
 10
24.07491988756758
 20
146.9947331360188
 42
-0.3597638292580174
 10
21.54531057413176
 20
148.9305995394321
 10
18.84949779286851
 20
160.6074475630609
 42
0.3492156334215406
 10
17.87512772808328
 20
161.3824965087171
 10
16.61795542916431
 20
161.3824965087171
 10
22.33194315952193
 20
136.6324965087171
 10
43.08194315952192
 20
136.6324965087171
 10
43.08194315952192
 20
145.632496508717
 42
0.4142135623730951
  0
CIRCLE
  5
670
330
1F
100
AcDbEntity
  8
Seat Back
100
AcDbCircle
 10
-6.180477349908017
 20
159.7574965087171
 30
0.0
 40
0.125
  0
CIRCLE
  5
671
330
1F
100
AcDbEntity
  8
Seat Back
100
AcDbCircle
 10
5.819522650091982
 20
159.7574965087171
 30
0.0
 40
0.125
  0
CIRCLE
  5
672
330
1F
100
AcDbEntity
  8
Seat Back
100
AcDbCircle
 10
5.819522650091982
 20
144.757496508717
 30
0.0
 40
0.125
  0
CIRCLE
  5
673
330
1F
100
AcDbEntity
  8
Seat Back
100
AcDbCircle
 10
-6.180477349908017
 20
144.757496508717
 30
0.0
 40
0.125
  0
CIRCLE
  5
674
330
1F
100
AcDbEntity
  8
Seat Bottom
100
AcDbCircle
 10
60.40555228270552
 20
160.0563265843875
 30
0.0
 40
0.125
  0
CIRCLE
  5
675
330
1F
100
AcDbEntity
  8
Seat Bottom
100
AcDbCircle
 10
75.90555228270551
 20
160.0563265843875
 30
0.0
 40
0.125
  0
CIRCLE
  5
676
330
1F
100
AcDbEntity
  8
Seat Bottom
100
AcDbCircle
 10
60.40555228270552
 20
149.5563265843875
 30
0.0
 40
0.125
  0
CIRCLE
  5
677
330
1F
100
AcDbEntity
  8
Seat Bottom
100
AcDbCircle
 10
75.90555228270551
 20
149.5563265843875
 30
0.0
 40
0.125
  0
LWPOLYLINE
  5
678
330
1F
100
AcDbEntity
  8
Seat Sides
100
AcDbPolyline
 90
        9
 70
     1
 43
0.0
 10
34.7320850106276
 20
124.0162099809436
 10
51.73910828258194
 20
123.3784466082454
 42
0.3597638292580174
 10
54.26871759601777
 20
125.3143130116587
 10
56.96453037728102
 20
136.9911610352875
 42
-0.3492156334215406
 10
57.93890044206626
 20
137.7662099809436
 10
59.19607274098521
 20
137.7662099809436
 10
53.4820850106276
 20
113.0162099809437
 10
32.7320850106276
 20
113.0162099809437
 10
32.7320850106276
 20
122.0162099809436
 42
-0.4142135623730951
  0
DIMENSION
  5
67B
102
{ACAD_XDICTIONARY
360
689
102
}
102
{ACAD_REACTORS
330
68A
102
}
330
1F
100
AcDbEntity
  8
AM_5
100
AcDbDimension
  2
*D9
 10
-16.60077292233535
 20
136.6324965087171
 30
0.0
 11
-16.60077292233537
 21
150.2574965087171
 31
0.0
 70
    32
  1
<>[]
 71
     5
 42
27.25000000000003
  3
AM_ANSI$0
100
AcDbAlignedDimension
 13
-9.430477349908017
 23
163.8824965087171
 33
0.0
 14
-9.43047734990802
 24
136.6324965087171
 34
0.0
 50
90.0
100
AcDbRotatedDimension
1001
ACAD_DSTYLE_DIMINSPECT
1070
   396
1000
100%
1070
   395
1000

1070
   394
1070
    33
1070
   393
1070
     0
1001
ACAD
1000
DSTYLE
1002
{
1070
   170
1070
     1
1070
   271
1070
     3
1002
}
  0
DIMENSION
  5
6B3
102
{ACAD_XDICTIONARY
360
6C1
102
}
102
{ACAD_REACTORS
330
6C2
330
742
102
}
330
1F
100
AcDbEntity
  8
AM_5
100
AcDbDimension
  2
*D10
 10
-119.9984526330942
 20
71.36814653552807
 30
0.0
 11
-119.9984526330942
 21
80.86814653552805
 31
0.0
 70
    32
 71
     5
 42
18.99999999999998
  3
AM_ANSI$0
100
AcDbAlignedDimension
 13
-116.7438728159752
 23
90.36814653552806
 33
0.0
 14
-116.7438728159752
 24
71.36814653552807
 34
0.0
 50
90.0
100
AcDbRotatedDimension
1001
ACAD
1000
DSTYLE
1002
{
1070
   170
1070
     1
1070
   271
1070
     3
1002
}
1001
ACAD_DSTYLE_DIMINSPECT
1070
   396
1000
100%
1070
   395
1000

1070
   394
1070
    33
1070
   393
1070
     0
  0
DIMENSION
  5
6D7
102
{ACAD_XDICTIONARY
360
6E5
102
}
102
{ACAD_REACTORS
330
6E6
330
70A
102
}
330
1F
100
AcDbEntity
  8
AM_5
100
AcDbDimension
  2
*D11
 10
31.94106864014055
 20
90.04197661119848
 30
0.0
 11
31.94106864014053
 21
83.29197661119847
 31
0.0
 70
    32
 71
     5
 42
13.50000000000001
  3
AM_ANSI$0
100
AcDbAlignedDimension
 13
26.42067093876773
 23
76.54197661119846
 33
0.0
 14
26.42067093876773
 24
90.04197661119848
 34
0.0
 50
90.00000000000005
100
AcDbRotatedDimension
1001
ACAD
1000
DSTYLE
1002
{
1070
   170
1070
     1
1070
   271
1070
     3
1002
}
1001
ACAD_DSTYLE_DIMINSPECT
1070
   396
1000
100%
1070
   395
1000

1070
   394
1070
    33
1070
   393
1070
     0
  0
DIMENSION
  5
6FB
102
{ACAD_XDICTIONARY
360
709
102
}
102
{ACAD_REACTORS
330
70A
102
}
330
1F
100
AcDbEntity
  8
AM_5
100
AcDbDimension
  2
*D12
 10
8.920670938767727
 20
93.62992779523725
 30
0.0
 11
17.69567093876772
 21
93.62992779523725
 31
0.0
 70
    32
  1
<>[]
 71
     5
 42
17.55
  3
AM_ANSI$0
100
AcDbAlignedDimension
 13
26.47067093876773
 23
90.04197661119848
 33
0.0
 14
8.920670938767727
 24
90.04197661119848
 34
0.0
100
AcDbRotatedDimension
1001
ACAD_DSTYLE_DIMINSPECT
1070
   396
1000
100%
1070
   395
1000

1070
   394
1070
    33
1070
   393
1070
     0
1001
ACAD
1000
DSTYLE
1002
{
1070
   170
1070
     1
1070
   271
1070
     3
1002
}
  0
DIMENSION
  5
733
102
{ACAD_XDICTIONARY
360
741
102
}
102
{ACAD_REACTORS
330
742
102
}
330
1F
100
AcDbEntity
  8
AM_5
100
AcDbDimension
  2
*D13
 10
-116.7438728159752
 20
69.47034318715961
 30
0.0
 11
-108.4938728159752
 21
69.47034318715961
 31
0.0
 70
    32
 71
     5
 42
16.5
  3
AM_ANSI$0
100
AcDbAlignedDimension
 13
-100.2438728159751
 23
71.36814653552807
 33
0.0
 14
-116.7438728159752
 24
71.36814653552807
 34
0.0
 50
0.0000000000000114
100
AcDbRotatedDimension
1001
ACAD
1000
DSTYLE
1002
{
1070
   170
1070
     1
1070
   271
1070
     3
1002
}
1001
ACAD_DSTYLE_DIMINSPECT
1070
   396
1000
100%
1070
   395
1000

1070
   394
1070
    33
1070
   393
1070
     0
  0
DIMENSION
  5
757
102
{ACAD_XDICTIONARY
360
765
102
}
102
{ACAD_REACTORS
330
766
102
}
330
1F
100
AcDbEntity
  8
AM_5
100
AcDbDimension
  2
*D14
 10
-17.4160553716946
 20
95.68375810936325
 30
0.0
 11
-7.166055371694597
 21
95.68375810936325
 31
0.0
 70
    32
 71
     5
 42
20.5
  3
AM_ANSI$0
100
AcDbAlignedDimension
 13
3.083944628305403
 23
90.04197661119846
 33
0.0
 14
-17.4160553716946
 24
90.04197661119848
 34
0.0
100
AcDbRotatedDimension
1001
ACAD
1000
DSTYLE
1002
{
1070
   170
1070
     1
1070
   271
1070
     3
1002
}
1001
ACAD_DSTYLE_DIMINSPECT
1070
   396
1000
100%
1070
   395
1000

1070
   394
1070
    33
1070
   393
1070
     0
  0
LWPOLYLINE
  5
7F8
330
1F
100
AcDbEntity
  8
Seat Sides
100
AcDbPolyline
 90
       10
 70
     0
 43
0.0
 10
-37.58688081218474
 20
65.06814653552805
 10
-37.58688081218475
 20
73.34711872867588
 42
0.4252350155348199
 10
-40.18056496365747
 20
75.84536276794882
 10
-51.24668776683253
 20
75.43038316282978
 42
-0.3597638292580174
 10
-53.77629708026835
 20
77.36624956624308
 10
-56.4721098615316
 20
89.0430975898719
 42
0.3492156334215406
 10
-57.44647992631684
 20
89.81814653552804
 10
-58.7036522252358
 20
89.81814653552804
 10
-52.98966449487818
 20
65.06814653552805
 10
-37.58688081218474
 20
65.06814653552805
  0
ENDSEC
  0
SECTION
  2
OBJECTS
  0
DICTIONARY
  5
C
330
0
100
AcDbDictionary
281
     1
  3
ACAD_2007HEADERVARS_RT
350
7FE
  3
ACAD_COLOR
350
73
  3
ACAD_GROUP
350
D
  3
ACAD_LAYOUT
350
1A
  3
ACAD_MATERIAL
350
72
  3
ACAD_MLEADERSTYLE
350
137
  3
ACAD_MLINESTYLE
350
17
  3
ACAD_PLOTSETTINGS
350
19
  3
ACAD_PLOTSTYLENAME
350
E
  3
ACAD_SCALELIST
350
115
  3
ACAD_TABLESTYLE
350
86
  3
ACAD_VISUALSTYLE
350
99
  3
ACDB_RECOMPOSE_DATA
350
41A
  3
AcDbVariableDictionary
350
66
  3
AcmDictionary
350
19B
  3
AcmSystemVariableManager
350
814
  3
AMG
350
13E
  3
AMGSNAPSETTINGS
350
1DC
  3
DWGPROPS
350
7FD
  0
DICTIONARY
  5
C3
330
2
100
AcDbDictionary
280
     1
281
     1
  3
ACAD_LAYERFILTERS
360
E8
  3
ACLYDICTIONARY
360
E7
  0
DICTIONARY
  5
1F1
330
10
100
AcDbDictionary
280
     1
281
     1
  3
ADSK_XREC_LAYER_RECONCILED
360
1F2
  0
DICTIONARY
  5
1F3
330
C1
100
AcDbDictionary
280
     1
281
     1
  3
ADSK_XREC_LAYER_RECONCILED
360
1F4
  0
DICTIONARY
  5
1F5
330
E6
100
AcDbDictionary
280
     1
281
     1
  3
ADSK_XREC_LAYER_RECONCILED
360
1F6
  0
DICTIONARY
  5
1F7
330
1E3
100
AcDbDictionary
280
     1
281
     1
  3
ADSK_XREC_LAYER_RECONCILED
360
1F8
  0
DICTIONARY
  5
1F9
330
1E6
100
AcDbDictionary
280
     1
281
     1
  3
ADSK_XREC_LAYER_RECONCILED
360
1FA
  0
DICTIONARY
  5
BB
330
1F
100
AcDbDictionary
280
     1
281
     1
  3
ACAD_SORTENTS
360
BC
  0
DICTIONARY
  5
689
330
67B
100
AcDbDictionary
280
     1
281
     1
  3
ACAD_DIMASSOC
360
68A
  0
DICTIONARY
  5
6C1
330
6B3
100
AcDbDictionary
280
     1
281
     1
  3
ACAD_DIMASSOC
360
6C2
  0
DICTIONARY
  5
6E5
330
6D7
100
AcDbDictionary
280
     1
281
     1
  3
ACAD_DIMASSOC
360
6E6
  0
DICTIONARY
  5
709
330
6FB
100
AcDbDictionary
280
     1
281
     1
  3
ACAD_DIMASSOC
360
70A
  0
DICTIONARY
  5
741
330
733
100
AcDbDictionary
280
     1
281
     1
  3
ACAD_DIMASSOC
360
742
  0
DICTIONARY
  5
765
330
757
100
AcDbDictionary
280
     1
281
     1
  3
ACAD_DIMASSOC
360
766
  0
DICTIONARY
  5
7FE
102
{ACAD_REACTORS
330
C
102
}
330
C
100
AcDbDictionary
281
     1
  3
DIMARCSYM
350
7FF
  3
DIMLTEX1
350
801
  3
DIMLTEX2
350
802
  3
DIMLTYPE
350
800
  0
DICTIONARY
  5
73
102
{ACAD_REACTORS
330
C
102
}
330
C
100
AcDbDictionary
281
     1
  0
DICTIONARY
  5
D
102
{ACAD_REACTORS
330
C
102
}
330
C
100
AcDbDictionary
281
     1
  0
DICTIONARY
  5
1A
102
{ACAD_REACTORS
330
C
102
}
330
C
100
AcDbDictionary
281
     1
  3
Layout1
350
59
  3
Layout2
350
5E
  3
Model
350
22
  0
DICTIONARY
  5
72
102
{ACAD_REACTORS
330
C
102
}
330
C
100
AcDbDictionary
281
     1
  3
ByBlock
350
97
  3
ByLayer
350
96
  3
Global
350
98
  0
DICTIONARY
  5
137
102
{ACAD_REACTORS
330
C
102
}
330
C
100
AcDbDictionary
281
     1
  3
Standard
350
138
  0
DICTIONARY
  5
17
102
{ACAD_REACTORS
330
C
102
}
330
C
100
AcDbDictionary
281
     1
  3
Standard
350
18
  0
DICTIONARY
  5
19
102
{ACAD_REACTORS
330
C
102
}
330
C
100
AcDbDictionary
281
     1
  0
ACDBDICTIONARYWDFLT
  5
E
102
{ACAD_REACTORS
330
C
102
}
330
C
100
AcDbDictionary
281
     1
  3
Normal
350
F
100
AcDbDictionaryWithDefault
340
F
  0
DICTIONARY
  5
115
102
{ACAD_REACTORS
330
C
102
}
330
C
100
AcDbDictionary
281
     1
  3
A0
350
116
  3
A1
350
117
  3
A2
350
118
  3
A3
350
119
  3
A4
350
11A
  3
A5
350
11B
  3
A6
350
11C
  3
A7
350
11D
  3
A8
350
11E
  3
A9
350
11F
  3
B0
350
120
  3
B1
350
121
  3
B2
350
122
  3
B3
350
123
  3
B4
350
124
  3
B5
350
125
  3
B6
350
126
  3
B7
350
127
  3
B8
350
128
  3
B9
350
129
  3
C0
350
12A
  3
C1
350
12B
  3
C2
350
12C
  3
C3
350
12D
  3
C4
350
12E
  3
C5
350
12F
  3
C6
350
130
  3
C7
350
131
  3
C8
350
132
  3
C9
350
133
  3
D0
350
134
  3
D1
350
135
  3
D2
350
136
  0
DICTIONARY
  5
86
102
{ACAD_REACTORS
330
C
102
}
330
C
100
AcDbDictionary
281
     1
  3
Standard
350
87
  0
DICTIONARY
  5
99
102
{ACAD_REACTORS
330
C
102
}
330
C
100
AcDbDictionary
281
     1
  3
2dWireframe
350
9F
  3
3D Hidden
350
A1
  3
3dWireframe
350
A0
  3
Basic
350
9E
  3
Brighten
350
A5
  3
ColorChange
350
A9
  3
Conceptual
350
A2
  3
Dim
350
A4
  3
Facepattern
350
A8
  3
Flat
350
9A
  3
FlatWithEdges
350
9B
  3
Gouraud
350
9C
  3
GouraudWithEdges
350
9D
  3
Linepattern
350
A7
  3
Realistic
350
A3
  3
Thicken
350
A6
  0
XRECORD
  5
41A
102
{ACAD_REACTORS
330
C
102
}
330
C
100
AcDbXrecord
280
     1
 90
        1
330
87
  0
DICTIONARY
  5
66
102
{ACAD_REACTORS
330
C
102
}
330
C
100
AcDbDictionary
281
     1
  3
CANNOSCALE
350
41D
  3
CMLEADERSTYLE
350
41B
  3
CTABLESTYLE
350
89
  3
DIMASSOC
350
67
  3
HIDETEXT
350
6B
  3
INDEXCTL
350
7FB
  3
LAYEREVAL
350
41F
  3
LAYERNOTIFY
350
420
  3
LIGHTINGUNITS
350
41E
  3
MSLTSCALE
350
41C
  3
SORTENTS
350
7FA
  0
DICTIONARY
  5
19B
102
{ACAD_REACTORS
330
C
102
}
330
C
100
AcDbDictionary
281
     1
  3
AcmStdDictionary
350
1A8
  0
DICTIONARY
  5
13E
102
{ACAD_REACTORS
330
C
102
}
330
C
100
AcDbDictionary
281
     1
  0
DICTIONARY
  5
1DC
102
{ACAD_REACTORS
330
C
102
}
330
C
100
AcDbDictionary
281
     1
  0
XRECORD
  5
7FD
102
{ACAD_REACTORS
330
C
102
}
330
C
100
AcDbXrecord
280
     1
  1
DWGPROPS COOKIE
  2

  3

  4

  6

  7

  8
geneb
  9

300
=
301
=
302
=
303
=
304
=
305
=
306
=
307
=
308
=
309
=
 40
2.081604004629629
 41
2455077.755115741
 42
2455087.372890266
  1

 90
        0
  0
DICTIONARY
  5
E8
102
{ACAD_REACTORS
330
C3
102
}
330
C3
100
AcDbDictionary
281
     1
  0
DICTIONARY
  5
E7
102
{ACAD_REACTORS
330
C3
102
}
330
C3
100
AcDbDictionary
281
     1
1001
ACAD
1000
<All
  0
XRECORD
  5
1F2
102
{ACAD_REACTORS
330
1F1
102
}
330
1F1
100
AcDbXrecord
280
     1
290
     1
  0
XRECORD
  5
1F4
102
{ACAD_REACTORS
330
1F3
102
}
330
1F3
100
AcDbXrecord
280
     1
290
     1
  0
XRECORD
  5
1F6
102
{ACAD_REACTORS
330
1F5
102
}
330
1F5
100
AcDbXrecord
280
     1
290
     1
  0
XRECORD
  5
1F8
102
{ACAD_REACTORS
330
1F7
102
}
330
1F7
100
AcDbXrecord
280
     1
290
     1
  0
XRECORD
  5
1FA
102
{ACAD_REACTORS
330
1F9
102
}
330
1F9
100
AcDbXrecord
280
     1
290
     1
  0
SORTENTSTABLE
  5
BC
102
{ACAD_REACTORS
330
BB
102
}
330
BB
100
AcDbSortentsTable
330
1F
331
658
  5
658
331
670
  5
670
331
38A
  5
4FC
331
47C
  5
52A
331
668
  5
668
331
641
  5
645
331
5DF
  5
607
331
678
  5
678
331
616
  5
619
331
248
  5
480
331
475
  5
520
331
6B3
  5
6B3
331
649
  5
644
331
268
  5
4EF
331
240
  5
479
331
671
  5
671
331
47D
  5
52B
331
669
  5
669
331
642
  5
646
331
61F
  5
622
331
6FB
  5
6FB
331
51D
  5
536
331
476
  5
524
331
269
  5
4F8
331
241
  5
47A
331
672
  5
672
331
21A
  5
46E
331
47E
  5
52C
331
643
  5
647
331
23A
  5
471
331
107
  5
109
331
477
  5
525
331
242
  5
47B
331
757
  5
757
331
673
  5
673
331
47F
  5
530
331
644
  5
648
331
23B
  5
475
331
39D
  5
501
331
67B
  5
67B
331
24B
  5
481
331
395
  5
4FD
331
629
  5
628
331
243
  5
47C
331
674
  5
674
331
480
  5
531
331
66C
  5
66C
331
273
  5
49C
331
478
  5
526
331
645
  5
649
331
23C
  5
476
331
36E
  5
4FB
331
39E
  5
502
331
5DB
  5
608
331
655
  5
655
331
24C
  5
482
331
396
  5
4FE
331
665
  5
665
331
5EB
  5
5E5
331
675
  5
675
331
481
  5
532
331
6D7
  5
6D7
331
66D
  5
66D
331
646
  5
64A
331
23D
  5
477
331
479
  5
527
331
530
  5
539
331
39F
  5
503
331
656
  5
656
331
397
  5
4FF
331
245
  5
47D
331
666
  5
666
331
472
  5
51A
331
676
  5
676
331
482
  5
533
331
66E
  5
66E
331
647
  5
64B
331
216
  5
46C
331
47A
  5
528
331
657
  5
657
331
398
  5
500
331
246
  5
47E
331
733
  5
733
331
667
  5
667
331
473
  5
51D
331
677
  5
677
331
53A
  5
53A
331
50A
  5
43D
331
3A0
  5
504
331
10B
  5
105
331
66F
  5
66F
331
23F
  5
478
331
47B
  5
529
331
247
  5
47F
331
648
  5
64C
331
53B
  5
53B
331
267
  5
4B0
  0
DIMASSOC
  5
68A
102
{ACAD_REACTORS
330
689
102
}
330
689
100
AcDbDimAssoc
330
67B
 90
        1
 70
     0
 71
     0
  1
AcDbOsnapPointRef
 72
     1
331
66C
 73
     2
 91
        5
 40
0.0
 10
0.0
 20
0.0
 30
2.000000000000000E+50
 75
     0
  0
DIMASSOC
  5
6C2
102
{ACAD_REACTORS
330
6C1
102
}
330
6C1
100
AcDbDimAssoc
330
6B3
 90
        3
 70
     0
 71
     0
  1
AcDbOsnapPointRef
 72
     1
331
649
 73
     2
 91
        3
 40
0.0
 10
0.0
 20
0.0
 30
2.000000000000000E+50
 75
     0
  1
AcDbOsnapPointRef
 72
    13
331
649
 73
     2
 91
        1
 40
0.0
 10
0.0
 20
0.0
 30
2.000000000000000E+50
 75
     0
  0
DIMASSOC
  5
6E6
102
{ACAD_REACTORS
330
6E5
102
}
330
6E5
100
AcDbDimAssoc
330
6D7
 90
        3
 70
     0
 71
     0
  1
AcDbOsnapPointRef
 72
     1
331
669
 73
     2
 91
        3
 40
0.0
 10
0.0
 20
0.0
 30
2.000000000000000E+50
 75
     0
  1
AcDbOsnapPointRef
 72
     1
331
669
 73
     2
 91
        2
 40
0.0
 10
0.0
 20
0.0
 30
2.000000000000000E+50
 75
     0
  0
DIMASSOC
  5
70A
102
{ACAD_REACTORS
330
709
102
}
330
709
100
AcDbDimAssoc
330
6FB
 90
        3
 70
     0
 71
     0
  1
AcDbOsnapPointRef
 72
    13
331
6D7
331
6F2
 73
     0
 91
        0
 40
0.0
 10
0.0
 20
0.0
 30
2.000000000000000E+50
 75
     0
  1
AcDbOsnapPointRef
 72
     1
331
669
 73
     2
 91
        1
 40
0.0
 10
0.0
 20
0.0
 30
2.000000000000000E+50
 75
     0
  0
DIMASSOC
  5
742
102
{ACAD_REACTORS
330
741
102
}
330
741
100
AcDbDimAssoc
330
733
 90
        3
 70
     0
 71
     0
  1
AcDbOsnapPointRef
 72
     1
331
649
 73
     2
 91
        1
 40
0.0
 10
0.0
 20
0.0
 30
2.000000000000000E+50
 75
     0
  1
AcDbOsnapPointRef
 72
     4
331
6B3
331
6CE
 73
     0
 91
        0
 40
-0.015130516666893
 10
0.0
 20
0.0
 30
0.0
 75
     0
  0
DIMASSOC
  5
766
102
{ACAD_REACTORS
330
765
102
}
330
765
100
AcDbDimAssoc
330
757
 90
        3
 70
     0
 71
     0
  1
AcDbOsnapPointRef
 72
    13
331
5DF
 73
     2
 91
        3
 40
0.0
 10
0.0
 20
0.0
 30
2.000000000000000E+50
 75
     0
  1
AcDbOsnapPointRef
 72
     1
331
5DF
 73
     2
 91
        3
 40
0.0
 10
0.0
 20
0.0
 30
2.000000000000000E+50
 75
     0
  0
XRECORD
  5
7FF
102
{ACAD_REACTORS
330
7FE
102
}
330
7FE
100
AcDbXrecord
280
     1
 70
     1
  0
XRECORD
  5
801
102
{ACAD_REACTORS
330
7FE
102
}
330
7FE
100
AcDbXrecord
280
     1
340
14
  0
XRECORD
  5
802
102
{ACAD_REACTORS
330
7FE
102
}
330
7FE
100
AcDbXrecord
280
     1
340
14
  0
XRECORD
  5
800
102
{ACAD_REACTORS
330
7FE
102
}
330
7FE
100
AcDbXrecord
280
     1
340
14
  0
LAYOUT
  5
59
102
{ACAD_XDICTIONARY
360
805
102
}
102
{ACAD_REACTORS
330
1A
102
}
330
1A
100
AcDbPlotSettings
  1

  2
None
  4

  6

 40
0.0
 41
0.0
 42
0.0
 43
0.0
 44
0.0
 45
0.0
 46
0.0
 47
0.0
 48
0.0
 49
0.0
140
0.0
141
0.0
142
1.0
143
1.0
 70
   688
 72
     0
 73
     0
 74
     5
  7

 75
    16
147
1.0
148
0.0
149
0.0
100
AcDbLayout
  1
Layout1
 70
     1
 71
     1
 10
0.0
 20
0.0
 11
12.0
 21
9.0
 12
0.0
 22
0.0
 32
0.0
 14
0.0
 24
0.0
 34
0.0
 15
0.0
 25
0.0
 35
0.0
146
0.0
 13
0.0
 23
0.0
 33
0.0
 16
1.0
 26
0.0
 36
0.0
 17
0.0
 27
1.0
 37
0.0
 76
     0
330
58
  0
LAYOUT
  5
5E
102
{ACAD_XDICTIONARY
360
807
102
}
102
{ACAD_REACTORS
330
1A
102
}
330
1A
100
AcDbPlotSettings
  1

  2
None
  4

  6

 40
0.0
 41
0.0
 42
0.0
 43
0.0
 44
0.0
 45
0.0
 46
0.0
 47
0.0
 48
0.0
 49
0.0
140
0.0
141
0.0
142
1.0
143
1.0
 70
   688
 72
     0
 73
     0
 74
     5
  7

 75
    16
147
1.0
148
0.0
149
0.0
100
AcDbLayout
  1
Layout2
 70
     1
 71
     2
 10
0.0
 20
0.0
 11
12.0
 21
9.0
 12
0.0
 22
0.0
 32
0.0
 14
0.0
 24
0.0
 34
0.0
 15
0.0
 25
0.0
 35
0.0
146
0.0
 13
0.0
 23
0.0
 33
0.0
 16
1.0
 26
0.0
 36
0.0
 17
0.0
 27
1.0
 37
0.0
 76
     0
330
5D
  0
LAYOUT
  5
22
102
{ACAD_XDICTIONARY
360
803
102
}
102
{ACAD_REACTORS
330
1A
102
}
330
1A
100
AcDbPlotSettings
  1

  2
none_device
  4
ANSI_A_(8.50_x_11.00_Inches)
  6

 40
6.349999904632568
 41
19.04999923706055
 42
6.350006103515625
 43
19.04998779296875
 44
215.8999938964844
 45
279.3999938964844
 46
0.0
 47
0.0
 48
0.0
 49
0.0
140
0.0
141
0.0
142
1.0
143
2.584895464708373
 70
 11952
 72
     0
 73
     1
 74
     0
  7

 75
     0
147
0.3868628397755418
148
0.0
149
0.0
100
AcDbLayout
  1
Model
 70
     1
 71
     0
 10
0.0
 20
0.0
 11
12.0
 21
9.0
 12
0.0
 22
0.0
 32
0.0
 14
0.0
 24
0.0
 34
0.0
 15
0.0
 25
0.0
 35
0.0
146
0.0
 13
0.0
 23
0.0
 33
0.0
 16
1.0
 26
0.0
 36
0.0
 17
0.0
 27
1.0
 37
0.0
 76
     0
330
1F
331
94
  0
MATERIAL
  5
97
102
{ACAD_XDICTIONARY
360
80C
102
}
102
{ACAD_REACTORS
330
72
102
}
330
72
100
AcDbMaterial
  1
ByBlock
 73
     1
 78
     1
172
     1
176
     1
270
     1
274
     1
  0
MATERIAL
  5
96
102
{ACAD_XDICTIONARY
360
80A
102
}
102
{ACAD_REACTORS
330
72
102
}
330
72
100
AcDbMaterial
  1
ByLayer
 73
     1
 78
     1
172
     1
176
     1
270
     1
274
     1
  0
MATERIAL
  5
98
102
{ACAD_XDICTIONARY
360
80E
102
}
102
{ACAD_REACTORS
330
72
102
}
330
72
100
AcDbMaterial
  1
Global
 73
     1
 78
     1
172
     1
176
     1
270
     1
274
     1
  0
MLEADERSTYLE
  5
138
102
{ACAD_REACTORS
330
137
102
}
330
137
100
AcDbMLeaderStyle
170
     2
171
     1
172
     0
 90
        2
 40
0.0
 41
0.0
173
     1
 91
-1056964608
340
14
 92
       -2
290
     1
 42
0.09
291
     1
 43
0.36
  3
Standard
 44
0.18
300

342
11
174
     1
178
     6
175
     1
176
     0
 93
-1056964608
 45
0.18
292
     0
297
     0
 46
0.18
 94
-1056964608
 47
1.0
 49
1.0
140
1.0
293
     1
141
0.0
294
     1
177
     0
142
1.0
295
     0
296
     0
143
0.125
1001
ACAD_MLEADERVER
1070
     2
  0
MLINESTYLE
  5
18
102
{ACAD_REACTORS
330
17
102
}
330
17
100
AcDbMlineStyle
  2
STANDARD
 70
     0
  3

 62
   256
 51
90.0
 52
90.0
 71
     2
 49
0.5
 62
   256
  6
BYLAYER
 49
-0.5
 62
   256
  6
BYLAYER
  0
ACDBPLACEHOLDER
  5
F
102
{ACAD_REACTORS
330
E
102
}
330
E
  0
SCALE
  5
116
102
{ACAD_REACTORS
330
115
102
}
330
115
100
AcDbScale
 70
     0
300
1:1
140
1.0
141
1.0
290
     1
  0
SCALE
  5
117
102
{ACAD_REACTORS
330
115
102
}
330
115
100
AcDbScale
 70
     0
300
1:2
140
1.0
141
2.0
290
     0
  0
SCALE
  5
118
102
{ACAD_REACTORS
330
115
102
}
330
115
100
AcDbScale
 70
     0
300
1:4
140
1.0
141
4.0
290
     0
  0
SCALE
  5
119
102
{ACAD_REACTORS
330
115
102
}
330
115
100
AcDbScale
 70
     0
300
1:5
140
1.0
141
5.0
290
     0
  0
SCALE
  5
11A
102
{ACAD_REACTORS
330
115
102
}
330
115
100
AcDbScale
 70
     0
300
1:8
140
1.0
141
8.0
290
     0
  0
SCALE
  5
11B
102
{ACAD_REACTORS
330
115
102
}
330
115
100
AcDbScale
 70
     0
300
1:10
140
1.0
141
10.0
290
     0
  0
SCALE
  5
11C
102
{ACAD_REACTORS
330
115
102
}
330
115
100
AcDbScale
 70
     0
300
1:16
140
1.0
141
16.0
290
     0
  0
SCALE
  5
11D
102
{ACAD_REACTORS
330
115
102
}
330
115
100
AcDbScale
 70
     0
300
1:20
140
1.0
141
20.0
290
     0
  0
SCALE
  5
11E
102
{ACAD_REACTORS
330
115
102
}
330
115
100
AcDbScale
 70
     0
300
1:30
140
1.0
141
30.0
290
     0
  0
SCALE
  5
11F
102
{ACAD_REACTORS
330
115
102
}
330
115
100
AcDbScale
 70
     0
300
1:40
140
1.0
141
40.0
290
     0
  0
SCALE
  5
120
102
{ACAD_REACTORS
330
115
102
}
330
115
100
AcDbScale
 70
     0
300
1:50
140
1.0
141
50.0
290
     0
  0
SCALE
  5
121
102
{ACAD_REACTORS
330
115
102
}
330
115
100
AcDbScale
 70
     0
300
1:100
140
1.0
141
100.0
290
     0
  0
SCALE
  5
122
102
{ACAD_REACTORS
330
115
102
}
330
115
100
AcDbScale
 70
     0
300
2:1
140
2.0
141
1.0
290
     0
  0
SCALE
  5
123
102
{ACAD_REACTORS
330
115
102
}
330
115
100
AcDbScale
 70
     0
300
4:1
140
4.0
141
1.0
290
     0
  0
SCALE
  5
124
102
{ACAD_REACTORS
330
115
102
}
330
115
100
AcDbScale
 70
     0
300
8:1
140
8.0
141
1.0
290
     0
  0
SCALE
  5
125
102
{ACAD_REACTORS
330
115
102
}
330
115
100
AcDbScale
 70
     0
300
10:1
140
10.0
141
1.0
290
     0
  0
SCALE
  5
126
102
{ACAD_REACTORS
330
115
102
}
330
115
100
AcDbScale
 70
     0
300
100:1
140
100.0
141
1.0
290
     0
  0
SCALE
  5
127
102
{ACAD_REACTORS
330
115
102
}
330
115
100
AcDbScale
 70
     0
300
1/128" = 1'-0"
140
0.0078125
141
12.0
290
     0
  0
SCALE
  5
128
102
{ACAD_REACTORS
330
115
102
}
330
115
100
AcDbScale
 70
     0
300
1/64" = 1'-0"
140
0.015625
141
12.0
290
     0
  0
SCALE
  5
129
102
{ACAD_REACTORS
330
115
102
}
330
115
100
AcDbScale
 70
     0
300
1/32" = 1'-0"
140
0.03125
141
12.0
290
     0
  0
SCALE
  5
12A
102
{ACAD_REACTORS
330
115
102
}
330
115
100
AcDbScale
 70
     0
300
1/16" = 1'-0"
140
0.0625
141
12.0
290
     0
  0
SCALE
  5
12B
102
{ACAD_REACTORS
330
115
102
}
330
115
100
AcDbScale
 70
     0
300
3/32" = 1'-0"
140
0.09375
141
12.0
290
     0
  0
SCALE
  5
12C
102
{ACAD_REACTORS
330
115
102
}
330
115
100
AcDbScale
 70
     0
300
1/8" = 1'-0"
140
0.125
141
12.0
290
     0
  0
SCALE
  5
12D
102
{ACAD_REACTORS
330
115
102
}
330
115
100
AcDbScale
 70
     0
300
3/16" = 1'-0"
140
0.1875
141
12.0
290
     0
  0
SCALE
  5
12E
102
{ACAD_REACTORS
330
115
102
}
330
115
100
AcDbScale
 70
     0
300
1/4" = 1'-0"
140
0.25
141
12.0
290
     0
  0
SCALE
  5
12F
102
{ACAD_REACTORS
330
115
102
}
330
115
100
AcDbScale
 70
     0
300
3/8" = 1'-0"
140
0.375
141
12.0
290
     0
  0
SCALE
  5
130
102
{ACAD_REACTORS
330
115
102
}
330
115
100
AcDbScale
 70
     0
300
1/2" = 1'-0"
140
0.5
141
12.0
290
     0
  0
SCALE
  5
131
102
{ACAD_REACTORS
330
115
102
}
330
115
100
AcDbScale
 70
     0
300
3/4" = 1'-0"
140
0.75
141
12.0
290
     0
  0
SCALE
  5
132
102
{ACAD_REACTORS
330
115
102
}
330
115
100
AcDbScale
 70
     0
300
1" = 1'-0"
140
1.0
141
12.0
290
     0
  0
SCALE
  5
133
102
{ACAD_REACTORS
330
115
102
}
330
115
100
AcDbScale
 70
     0
300
1-1/2" = 1'-0"
140
1.5
141
12.0
290
     0
  0
SCALE
  5
134
102
{ACAD_REACTORS
330
115
102
}
330
115
100
AcDbScale
 70
     0
300
3" = 1'-0"
140
3.0
141
12.0
290
     0
  0
SCALE
  5
135
102
{ACAD_REACTORS
330
115
102
}
330
115
100
AcDbScale
 70
     0
300
6" = 1'-0"
140
6.0
141
12.0
290
     0
  0
SCALE
  5
136
102
{ACAD_REACTORS
330
115
102
}
330
115
100
AcDbScale
 70
     0
300
1'-0" = 1'-0"
140
12.0
141
12.0
290
     0
  0
TABLESTYLE
  5
87
102
{ACAD_XDICTIONARY
360
418
102
}
102
{ACAD_REACTORS
330
86
102
}
330
86
100
AcDbTableStyle
  3
Standard
 70
     0
 71
     0
 40
0.06
 41
0.06
280
     0
281
     0
  7
Standard
140
0.18
170
     2
 62
     0
 63
     7
283
     0
274
    -2
284
     1
 64
     0
275
    -2
285
     1
 65
     0
276
    -2
286
     1
 66
     0
277
    -2
287
     1
 67
     0
278
    -2
288
     1
 68
     0
279
    -2
289
     1
 69
     0
  7
Standard
140
0.25
170
     5
 62
     0
 63
     7
283
     0
274
    -2
284
     1
 64
     0
275
    -2
285
     1
 65
     0
276
    -2
286
     1
 66
     0
277
    -2
287
     1
 67
     0
278
    -2
288
     1
 68
     0
279
    -2
289
     1
 69
     0
  7
Standard
140
0.18
170
     5
 62
     0
 63
     7
283
     0
274
    -2
284
     1
 64
     0
275
    -2
285
     1
 65
     0
276
    -2
286
     1
 66
     0
277
    -2
287
     1
 67
     0
278
    -2
288
     1
 68
     0
279
    -2
289
     1
 69
     0
  0
VISUALSTYLE
  5
9F
102
{ACAD_REACTORS
330
99
102
}
330
99
100
AcDbVisualStyle
  2
2dWireframe
 70
     4
 71
     0
 72
     2
 73
     1
 90
        0
 40
-0.6
 41
-30.0
 62
     5
 63
     7
 74
     1
 91
        4
 64
     7
 65
   257
 75
     1
175
     1
 42
1.0
 92
        0
 66
   257
 43
1.0
 76
     1
 77
     6
 78
     2
 67
     7
 79
     5
170
     0
171
     0
290
     0
174
     0
 93
        1
 44
0.0
173
     0
291
     0
 45
0.0
1001
ACAD
1000
AcDbSavedByObjectVersion
1070
     0
  0
VISUALSTYLE
  5
A1
102
{ACAD_REACTORS
330
99
102
}
330
99
100
AcDbVisualStyle
  2
3D Hidden
 70
     6
 71
     1
 72
     2
 73
     2
 90
        0
 40
-0.6
 41
-30.0
 62
     5
 63
     7
 74
     2
 91
        2
 64
     7
 65
   257
 75
     2
175
     1
 42
40.0
 92
        0
 66
   257
 43
1.0
 76
     1
 77
     6
 78
     2
 67
     7
 79
     3
170
     0
171
     0
290
     0
174
     0
 93
        1
 44
0.0
173
     0
291
     0
 45
0.0
1001
ACAD
1000
AcDbSavedByObjectVersion
1070
     0
  0
VISUALSTYLE
  5
A0
102
{ACAD_REACTORS
330
99
102
}
330
99
100
AcDbVisualStyle
  2
3dWireframe
 70
     5
 71
     0
 72
     2
 73
     1
 90
        0
 40
-0.6
 41
-30.0
 62
     5
 63
     7
 74
     1
 91
        4
 64
     7
 65
   257
 75
     1
175
     1
 42
1.0
 92
        0
 66
   257
 43
1.0
 76
     1
 77
     6
 78
     2
 67
     7
 79
     5
170
     0
171
     0
290
     0
174
     0
 93
        1
 44
0.0
173
     0
291
     0
 45
0.0
1001
ACAD
1000
AcDbSavedByObjectVersion
1070
     0
  0
VISUALSTYLE
  5
9E
102
{ACAD_REACTORS
330
99
102
}
330
99
100
AcDbVisualStyle
  2
Basic
 70
     7
 71
     1
 72
     0
 73
     1
 90
        0
 40
-0.6
 41
-30.0
 62
     5
 63
     7
 74
     0
 91
        4
 64
     7
 65
   257
 75
     1
175
     1
 42
1.0
 92
        8
 66
     7
 43
1.0
 76
     1
 77
     6
 78
     2
 67
     7
 79
     5
170
     0
171
     0
290
     0
174
     0
 93
        1
 44
0.0
173
     0
291
     1
 45
0.0
1001
ACAD
1000
AcDbSavedByObjectVersion
1070
     0
  0
VISUALSTYLE
  5
A5
102
{ACAD_REACTORS
330
99
102
}
330
99
100
AcDbVisualStyle
  2
Brighten
 70
    12
 71
     2
 72
     2
 73
     1
 90
        0
 40
-0.6
 41
-30.0
 62
     5
 63
     7
 74
     1
 91
        4
 64
     7
 65
   257
 75
     1
175
     1
 42
1.0
 92
        8
 66
     7
 43
1.0
 76
     1
 77
     6
 78
     2
 67
     7
 79
     5
170
     0
171
     0
290
     0
174
     0
 93
        1
 44
50.0
173
     0
291
     1
 45
0.0
1001
ACAD
1000
AcDbSavedByObjectVersion
1070
     0
  0
VISUALSTYLE
  5
A9
102
{ACAD_REACTORS
330
99
102
}
330
99
100
AcDbVisualStyle
  2
ColorChange
 70
    16
 71
     2
 72
     2
 73
     3
 90
        0
 40
-0.6
 41
-30.0
 62
     5
 63
     8
 74
     1
 91
        4
 64
     7
 65
   257
 75
     1
175
     1
 42
1.0
 92
        8
 66
     8
 43
1.0
 76
     1
 77
     6
 78
     2
 67
     7
 79
     5
170
     0
171
     0
290
     0
174
     0
 93
        1
 44
0.0
173
     0
291
     1
 45
0.0
1001
ACAD
1000
AcDbSavedByObjectVersion
1070
     0
  0
VISUALSTYLE
  5
A2
102
{ACAD_REACTORS
330
99
102
}
330
99
100
AcDbVisualStyle
  2
Conceptual
 70
     9
 71
     3
 72
     2
 73
     1
 90
        0
 40
-0.6
 41
-30.0
 62
     5
 63
     7
 74
     2
 91
        2
 64
     7
 65
   257
 75
     1
175
     1
 42
40.0
 92
        8
 66
     7
 43
1.0
 76
     1
 77
     6
 78
     2
 67
     7
 79
     3
170
     0
171
     0
290
     0
174
     0
 93
        1
 44
0.0
173
     0
291
     0
 45
0.0
1001
ACAD
1000
AcDbSavedByObjectVersion
1070
     0
  0
VISUALSTYLE
  5
A4
102
{ACAD_REACTORS
330
99
102
}
330
99
100
AcDbVisualStyle
  2
Dim
 70
    11
 71
     2
 72
     2
 73
     1
 90
        0
 40
-0.6
 41
-30.0
 62
     5
 63
     7
 74
     1
 91
        4
 64
     7
 65
   257
 75
     1
175
     1
 42
1.0
 92
        8
 66
     7
 43
1.0
 76
     1
 77
     6
 78
     2
 67
     7
 79
     5
170
     0
171
     0
290
     0
174
     0
 93
        1
 44
-50.0
173
     0
291
     1
 45
0.0
1001
ACAD
1000
AcDbSavedByObjectVersion
1070
     0
  0
VISUALSTYLE
  5
A8
102
{ACAD_REACTORS
330
99
102
}
330
99
100
AcDbVisualStyle
  2
Facepattern
 70
    15
 71
     2
 72
     2
 73
     1
 90
        0
 40
-0.6
 41
-30.0
 62
     5
 63
     7
 74
     1
 91
        4
 64
     7
 65
   257
 75
     1
175
     1
 42
1.0
 92
        8
 66
     7
 43
1.0
 76
     1
 77
     6
 78
     2
 67
     7
 79
     5
170
     0
171
     0
290
     0
174
     0
 93
        1
 44
0.0
173
     0
291
     1
 45
0.0
1001
ACAD
1000
AcDbSavedByObjectVersion
1070
     0
  0
VISUALSTYLE
  5
9A
102
{ACAD_REACTORS
330
99
102
}
330
99
100
AcDbVisualStyle
  2
Flat
 70
     0
 71
     2
 72
     1
 73
     1
 90
        2
 40
-0.6
 41
30.0
 62
     5
 63
     7
 74
     0
 91
        4
 64
     7
 65
   257
 75
     1
175
     1
 42
1.0
 92
        8
 66
     7
 43
1.0
 76
     1
 77
     6
 78
     2
 67
     7
 79
     5
170
     0
171
     0
290
     0
174
     0
 93
        1
 44
0.0
173
     0
291
     1
 45
0.0
1001
ACAD
1000
AcDbSavedByObjectVersion
1070
     0
  0
VISUALSTYLE
  5
9B
102
{ACAD_REACTORS
330
99
102
}
330
99
100
AcDbVisualStyle
  2
FlatWithEdges
 70
     1
 71
     2
 72
     1
 73
     1
 90
        2
 40
-0.6
 41
30.0
 62
     5
 63
     7
 74
     1
 91
        4
 64
     7
 65
   257
 75
     1
175
     1
 42
1.0
 92
        0
 66
   257
 43
1.0
 76
     1
 77
     6
 78
     2
 67
     7
 79
     5
170
     0
171
     0
290
     0
174
     0
 93
        1
 44
0.0
173
     0
291
     1
 45
0.0
1001
ACAD
1000
AcDbSavedByObjectVersion
1070
     0
  0
VISUALSTYLE
  5
9C
102
{ACAD_REACTORS
330
99
102
}
330
99
100
AcDbVisualStyle
  2
Gouraud
 70
     2
 71
     2
 72
     2
 73
     1
 90
        2
 40
-0.6
 41
30.0
 62
     5
 63
     7
 74
     0
 91
        4
 64
     7
 65
   257
 75
     1
175
     1
 42
1.0
 92
        0
 66
     7
 43
1.0
 76
     1
 77
     6
 78
     2
 67
     7
 79
     5
170
     0
171
     0
290
     0
174
     0
 93
        1
 44
0.0
173
     0
291
     1
 45
0.0
1001
ACAD
1000
AcDbSavedByObjectVersion
1070
     0
  0
VISUALSTYLE
  5
9D
102
{ACAD_REACTORS
330
99
102
}
330
99
100
AcDbVisualStyle
  2
GouraudWithEdges
 70
     3
 71
     2
 72
     2
 73
     1
 90
        2
 40
-0.6
 41
30.0
 62
     5
 63
     7
 74
     1
 91
        4
 64
     7
 65
   257
 75
     1
175
     1
 42
1.0
 92
        0
 66
   257
 43
1.0
 76
     1
 77
     6
 78
     2
 67
     7
 79
     5
170
     0
171
     0
290
     0
174
     0
 93
        1
 44
0.0
173
     0
291
     1
 45
0.0
1001
ACAD
1000
AcDbSavedByObjectVersion
1070
     0
  0
VISUALSTYLE
  5
A7
102
{ACAD_REACTORS
330
99
102
}
330
99
100
AcDbVisualStyle
  2
Linepattern
 70
    14
 71
     2
 72
     2
 73
     1
 90
        0
 40
-0.6
 41
-30.0
 62
     5
 63
     7
 74
     1
 91
        4
 64
     7
 65
   257
 75
     7
175
     7
 42
1.0
 92
        8
 66
     7
 43
1.0
 76
     1
 77
     6
 78
     2
 67
     7
 79
     5
170
     0
171
     0
290
     0
174
     0
 93
        1
 44
0.0
173
     0
291
     1
 45
0.0
1001
ACAD
1000
AcDbSavedByObjectVersion
1070
     0
  0
VISUALSTYLE
  5
A3
102
{ACAD_REACTORS
330
99
102
}
330
99
100
AcDbVisualStyle
  2
Realistic
 70
     8
 71
     2
 72
     2
 73
     1
 90
        0
 40
-0.6
 41
-30.0
 62
     5
 63
     7
 74
     1
 91
        0
 64
     7
 65
   257
 75
     1
175
     1
 42
1.0
 92
        8
 66
     8
 43
1.0
 76
     1
 77
     6
 78
     2
 67
     7
 79
     5
170
     0
171
     0
290
     0
174
     0
 93
       13
 44
0.0
173
     0
291
     0
 45
0.0
1001
ACAD
1000
AcDbSavedByObjectVersion
1070
     0
  0
VISUALSTYLE
  5
A6
102
{ACAD_REACTORS
330
99
102
}
330
99
100
AcDbVisualStyle
  2
Thicken
 70
    13
 71
     2
 72
     2
 73
     1
 90
        0
 40
-0.6
 41
-30.0
 62
     5
 63
     7
 74
     1
 91
        4
 64
     7
 65
   257
 75
     1
175
     1
 42
1.0
 92
       12
 66
     7
 43
1.0
 76
     1
 77
     6
 78
     2
 67
     7
 79
     5
170
     0
171
     0
290
     0
174
     0
 93
        1
 44
0.0
173
     0
291
     1
 45
0.0
1001
ACAD
1000
AcDbSavedByObjectVersion
1070
     0
  0
DICTIONARYVAR
  5
41D
102
{ACAD_REACTORS
330
66
102
}
330
66
100
DictionaryVariables
280
     0
  1
1:1
  0
DICTIONARYVAR
  5
41B
102
{ACAD_REACTORS
330
66
102
}
330
66
100
DictionaryVariables
280
     0
  1
STANDARD
  0
DICTIONARYVAR
  5
89
102
{ACAD_REACTORS
330
66
102
}
330
66
100
DictionaryVariables
280
     0
  1
STANDARD
  0
DICTIONARYVAR
  5
67
102
{ACAD_REACTORS
330
66
102
}
330
66
100
DictionaryVariables
280
     0
  1
2
  0
DICTIONARYVAR
  5
6B
102
{ACAD_REACTORS
330
66
102
}
330
66
100
DictionaryVariables
280
     0
  1
1
  0
DICTIONARYVAR
  5
7FB
102
{ACAD_REACTORS
330
66
102
}
330
66
100
DictionaryVariables
280
     0
  1
0
  0
DICTIONARYVAR
  5
41F
102
{ACAD_REACTORS
330
66
102
}
330
66
100
DictionaryVariables
280
     0
  1
1
  0
DICTIONARYVAR
  5
420
102
{ACAD_REACTORS
330
66
102
}
330
66
100
DictionaryVariables
280
     0
  1
15
  0
DICTIONARYVAR
  5
41E
102
{ACAD_REACTORS
330
66
102
}
330
66
100
DictionaryVariables
280
     0
  1
0
  0
DICTIONARYVAR
  5
41C
102
{ACAD_REACTORS
330
66
102
}
330
66
100
DictionaryVariables
280
     0
  1
0
  0
DICTIONARYVAR
  5
7FA
102
{ACAD_REACTORS
330
66
102
}
330
66
100
DictionaryVariables
280
     0
  1
127
  0
DICTIONARY
  5
1A8
102
{ACAD_REACTORS
330
19B
102
}
330
19B
100
AcDbDictionary
281
     1
  0
DICTIONARY
  5
805
330
59
100
AcDbDictionary
280
     1
281
     1
  3
ACAD_XREC_ROUNDTRIP
360
806
  0
DICTIONARY
  5
807
330
5E
100
AcDbDictionary
280
     1
281
     1
  3
ACAD_XREC_ROUNDTRIP
360
808
  0
DICTIONARY
  5
803
330
22
100
AcDbDictionary
280
     1
281
     1
  3
ACAD_XREC_ROUNDTRIP
360
804
  0
DICTIONARY
  5
80C
330
97
100
AcDbDictionary
280
     1
281
     1
  3
ACAD_XREC_ROUNDTRIP
360
80D
  0
DICTIONARY
  5
80A
330
96
100
AcDbDictionary
280
     1
281
     1
  3
ACAD_XREC_ROUNDTRIP
360
80B
  0
DICTIONARY
  5
80E
330
98
100
AcDbDictionary
280
     1
281
     1
  3
ACAD_XREC_ROUNDTRIP
360
80F
  0
DICTIONARY
  5
418
330
87
100
AcDbDictionary
280
     1
281
     1
  3
ACAD_ROUNDTRIP_2008_TABLESTYLE_CELLSTYLEMAP
360
7FC
  3
ACAD_XREC_ROUNDTRIP
360
809
  0
XRECORD
  5
806
102
{ACAD_REACTORS
330
805
102
}
330
805
100
AcDbXrecord
280
     1
102
SHADEPLOT
 70
     0
102
SHADEPLOTRESLEVEL
 70
     2
102
SHADEPLOTCUSTOMDPI
 70
   300
  0
XRECORD
  5
808
102
{ACAD_REACTORS
330
807
102
}
330
807
100
AcDbXrecord
280
     1
102
SHADEPLOT
 70
     0
102
SHADEPLOTRESLEVEL
 70
     2
102
SHADEPLOTCUSTOMDPI
 70
   300
  0
XRECORD
  5
804
102
{ACAD_REACTORS
330
803
102
}
330
803
100
AcDbXrecord
280
     1
102
SHADEPLOT
 70
     0
102
SHADEPLOTRESLEVEL
 70
     2
102
SHADEPLOTCUSTOMDPI
 70
   300
  0
XRECORD
  5
80D
102
{ACAD_REACTORS
330
80C
102
}
330
80C
100
AcDbXrecord
280
     1
102
MATERIAL
148
0.0
149
0.0
149
0.0
 93
        0
 94
       63
282
     0
 72
     1
 77
     1
171
     1
175
     1
179
     1
273
     0
  0
XRECORD
  5
80B
102
{ACAD_REACTORS
330
80A
102
}
330
80A
100
AcDbXrecord
280
     1
102
MATERIAL
148
0.0
149
0.0
149
0.0
 93
        0
 94
       63
282
     0
 72
     1
 77
     1
171
     1
175
     1
179
     1
273
     0
  0
XRECORD
  5
80F
102
{ACAD_REACTORS
330
80E
102
}
330
80E
100
AcDbXrecord
280
     1
102
MATERIAL
148
0.0
149
0.0
149
0.0
 93
        0
 94
       63
282
     0
 72
     1
 77
     1
171
     1
175
     1
179
     1
273
     0
  0
CELLSTYLEMAP
  5
7FC
102
{ACAD_REACTORS
330
418
102
}
330
418
100
AcDbCellStyleMap
 90
        3
300
CELLSTYLE
  1
TABLEFORMAT_BEGIN
 90
        5
170
     1
 91
        0
 92
    32768
 62
   257
 93
        1
300
CONTENTFORMAT
  1
CONTENTFORMAT_BEGIN
 90
        0
 91
        0
 92
      512
 93
        0
300

 40
0.0
140
1.0
 94
        5
 62
     0
340
11
144
0.25
309
CONTENTFORMAT_END
171
     0
 94
        6
 95
        1
302
GRIDFORMAT
  1
GRIDFORMAT_BEGIN
 90
        0
 91
        1
 62
     0
 92
       -2
340
0
 93
        0
 40
0.045
309
GRIDFORMAT_END
 95
        2
302
GRIDFORMAT
  1
GRIDFORMAT_BEGIN
 90
        0
 91
        1
 62
     0
 92
       -2
340
0
 93
        0
 40
0.045
309
GRIDFORMAT_END
 95
        4
302
GRIDFORMAT
  1
GRIDFORMAT_BEGIN
 90
        0
 91
        1
 62
     0
 92
       -2
340
0
 93
        0
 40
0.045
309
GRIDFORMAT_END
 95
        8
302
GRIDFORMAT
  1
GRIDFORMAT_BEGIN
 90
        0
 91
        1
 62
     0
 92
       -2
340
0
 93
        0
 40
0.045
309
GRIDFORMAT_END
 95
       16
302
GRIDFORMAT
  1
GRIDFORMAT_BEGIN
 90
        0
 91
        1
 62
     0
 92
       -2
340
0
 93
        0
 40
0.045
309
GRIDFORMAT_END
 95
       32
302
GRIDFORMAT
  1
GRIDFORMAT_BEGIN
 90
        0
 91
        1
 62
     0
 92
       -2
340
0
 93
        0
 40
0.045
309
GRIDFORMAT_END
309
TABLEFORMAT_END
  1
CELLSTYLE_BEGIN
 90
        1
 91
        1
300
_TITLE
309
CELLSTYLE_END
300
CELLSTYLE
  1
TABLEFORMAT_BEGIN
 90
        5
170
     1
 91
        0
 92
        0
 62
   257
 93
        1
300
CONTENTFORMAT
  1
CONTENTFORMAT_BEGIN
 90
        0
 91
        0
 92
      512
 93
        0
300

 40
0.0
140
1.0
 94
        5
 62
     0
340
11
144
0.18
309
CONTENTFORMAT_END
171
     0
 94
        6
 95
        1
302
GRIDFORMAT
  1
GRIDFORMAT_BEGIN
 90
        0
 91
        1
 62
     0
 92
       -2
340
0
 93
        0
 40
0.045
309
GRIDFORMAT_END
 95
        2
302
GRIDFORMAT
  1
GRIDFORMAT_BEGIN
 90
        0
 91
        1
 62
     0
 92
       -2
340
0
 93
        0
 40
0.045
309
GRIDFORMAT_END
 95
        4
302
GRIDFORMAT
  1
GRIDFORMAT_BEGIN
 90
        0
 91
        1
 62
     0
 92
       -2
340
0
 93
        0
 40
0.045
309
GRIDFORMAT_END
 95
        8
302
GRIDFORMAT
  1
GRIDFORMAT_BEGIN
 90
        0
 91
        1
 62
     0
 92
       -2
340
0
 93
        0
 40
0.045
309
GRIDFORMAT_END
 95
       16
302
GRIDFORMAT
  1
GRIDFORMAT_BEGIN
 90
        0
 91
        1
 62
     0
 92
       -2
340
0
 93
        0
 40
0.045
309
GRIDFORMAT_END
 95
       32
302
GRIDFORMAT
  1
GRIDFORMAT_BEGIN
 90
        0
 91
        1
 62
     0
 92
       -2
340
0
 93
        0
 40
0.045
309
GRIDFORMAT_END
309
TABLEFORMAT_END
  1
CELLSTYLE_BEGIN
 90
        2
 91
        1
300
_HEADER
309
CELLSTYLE_END
300
CELLSTYLE
  1
TABLEFORMAT_BEGIN
 90
        5
170
     1
 91
        0
 92
        0
 62
   257
 93
        1
300
CONTENTFORMAT
  1
CONTENTFORMAT_BEGIN
 90
        0
 91
        0
 92
      512
 93
        0
300

 40
0.0
140
1.0
 94
        2
 62
     0
340
11
144
0.18
309
CONTENTFORMAT_END
171
     0
 94
        6
 95
        1
302
GRIDFORMAT
  1
GRIDFORMAT_BEGIN
 90
        0
 91
        1
 62
     0
 92
       -2
340
0
 93
        0
 40
0.045
309
GRIDFORMAT_END
 95
        2
302
GRIDFORMAT
  1
GRIDFORMAT_BEGIN
 90
        0
 91
        1
 62
     0
 92
       -2
340
0
 93
        0
 40
0.045
309
GRIDFORMAT_END
 95
        4
302
GRIDFORMAT
  1
GRIDFORMAT_BEGIN
 90
        0
 91
        1
 62
     0
 92
       -2
340
0
 93
        0
 40
0.045
309
GRIDFORMAT_END
 95
        8
302
GRIDFORMAT
  1
GRIDFORMAT_BEGIN
 90
        0
 91
        1
 62
     0
 92
       -2
340
0
 93
        0
 40
0.045
309
GRIDFORMAT_END
 95
       16
302
GRIDFORMAT
  1
GRIDFORMAT_BEGIN
 90
        0
 91
        1
 62
     0
 92
       -2
340
0
 93
        0
 40
0.045
309
GRIDFORMAT_END
 95
       32
302
GRIDFORMAT
  1
GRIDFORMAT_BEGIN
 90
        0
 91
        1
 62
     0
 92
       -2
340
0
 93
        0
 40
0.045
309
GRIDFORMAT_END
309
TABLEFORMAT_END
  1
CELLSTYLE_BEGIN
 90
        3
 91
        2
300
_DATA
309
CELLSTYLE_END
  0
XRECORD
  5
809
102
{ACAD_REACTORS
330
418
102
}
330
418
100
AcDbXrecord
280
     1
102
ACAD_ROUNDTRIP_PRE2007_TABLESTYLE
 90
      512
 91
        0
  1

 92
      512
 93
        0
  2

 94
      512
 95
        0
  3

  0
ENDSEC
  0
EOF
